Торрент файл
скачать торрент магнет ссылка Добавлен: 23 окт 2019, 02:51
Размер: 5.84 ГБ
Сидеров: 0
Личеров: 0
Статус: (salma3)
Автор

СообщениеДобавлено: 23 окт 2019, 02:51 

Не в сети
Супермодератор
Аватара пользователя
Дата регистрации:
15 фев 2012, 16:44
Возраст: 32
Спасибо: 8321 / 2148
Сообщения: 97229
Год выпуска: 1974
Страна: Франция
Жанр: Комедия
Продолжительность: 01:33:21
Перевод: Профессиональный (дублированный), Профессиональный (многоголосый закадровый), Профессиональный (двухголосый закадровый), Авторский (одноголосый закадровый)
Режиссер: Клод Зиди

В ролях: Пьер Ришар, Джейн Биркин, Клод Пьеплю, Жан Мартен, Даниэль Минадзоли, Витторио Каприоли, Жюльен Гийомар, Анри Гибе, Клеман Харари, Бруно Балп, Анна Гайлор, Жан-Мари Прослье, Маню Плютон

Описание: Пьер Дюруа, учитель в пансионе для девочек, в свободное время занимается журналистикой. Когда в город приезжает съемочная группа кино, он пишет ядовитую заметку об американской кинозвезде - вулканической Джеки Логан.
Случайно познакомившись с Джеки, он меняет свое мнение и пытается сделать все, чтобы предотвратить публикацию заметки и ее откровенных фотографий...



Качество: HDTVRip 1080p
Формат: MKV
Видео кодек: x264
Аудио кодек: AC3
Видео: MPEG4 Video (H264), 1920x816, 25fps, 8000 Kbps
Аудио #01: Русский: Dolby AC3, 48000 Hz, 2ch, 192 kbps - Дубляж
Аудио #02: Русский: Dolby AC3, 48000 Hz, 2ch, 192 kbps - Многоголосый, Neoclassica
Аудио #03: Русский: Dolby AC3, 48000 Hz, 2ch, 192 kbps - Двухголосый, НТВ
Аудио #04: Русский: Dolby AC3, 48000 Hz, 2ch, 192 kbps - Одноголосый, Леонид Володарский
Аудио #05: Французский: Dolby AC3, 48000 Hz, 2ch, 192 kbps

General
Unique ID : 212865913361405430487026159363247319953 (0xA0247BD1ADFB0FF2A1C24237DEE42B91)
Complete name : D:Torrent21974.La.Moutarde.likko.mkv
Format : Matroska
Format version : Version 4
File size : 5.84 GiB
Duration : 1 h 33 min
Overall bit rate : 8 963 kb/s
Movie name : 1974 Он начинает сердиться HDTVRip 1080p/likko
Encoded date : UTC 2019-10-22 14:05:24
Writing application : mkvmerge v8.3.0 ('Over the Horizon') 64bit
Writing library : libebml v1.3.1 + libmatroska v1.4.2
Video
ID : 1
Format : AVC
Format/Info : Advanced Video Codec
Format profile : High@L4.1
Format settings : CABAC / 5 Ref Frames
Format settings, CABAC : Yes
Format settings, Reference : 5 frames
Codec ID : V_MPEG4/ISO/AVC
Duration : 1 h 33 min
Bit rate : 8 000 kb/s
Width : 1 920 pixels
Height : 816 pixels
Display aspect ratio : 2.35:1
Frame rate mode : Constant
Frame rate : 25.000 FPS
Color space : YUV
Chroma subsampling : 4:2:0
Bit depth : 8 bits
Scan type : Progressive
Bits/(Pixel*Frame) : 0.204
Stream size : 5.22 GiB (89%)
Title : 1974 Он начинает сердиться HDTVRip 1080p
Writing library : x264 core 148 r2638 7599210
Encoding settings : cabac=1 / ref=5 / deblock=1:-1:-1 / analyse=0x3:0x133 / me=umh / subme=11 / psy=1 / psy_rd=1.00:0.15 / mixed_ref=1 / me_range=48 / chroma_me=1 / trellis=2 / 8x8dct=1 / cqm=0 / deadzone=21,11 / fast_pskip=0 / chroma_qp_offset=-3 / threads=18 / lookahead_threads=3 / sliced_threads=0 / nr=0 / decimate=1 / interlaced=0 / bluray_compat=0 / constrained_intra=0 / bframes=8 / b_pyramid=2 / b_adapt=2 / b_bias=0 / direct=3 / weightb=1 / open_gop=0 / weightp=2 / keyint=250 / keyint_min=25 / scenecut=40 / intra_refresh=0 / rc=2pass / mbtree=0 / bitrate=8000 / ratetol=1.0 / qcomp=0.60 / qpmin=0 / qpmax=69 / qpstep=4 / cplxblur=20.0 / qblur=0.5 / ip_ratio=1.40 / pb_ratio=1.30 / aq=2:1.00
Language : French
Default : Yes
Forced : No
Audio #1
ID : 2
Format : AC-3
Format/Info : Audio Coding 3
Commercial name : Dolby Digital
Codec ID : A_AC3
Duration : 1 h 33 min
Bit rate mode : Constant
Bit rate : 192 kb/s
Channel(s) : 2 channels
Channel layout : L R
Sampling rate : 48.0 kHz
Frame rate : 31.250 FPS (1536 SPF)
Compression mode : Lossy
Stream size : 128 MiB (2%)
Title : Дубляж
Language : Russian
Service kind : Complete Main
Default : Yes
Forced : No
Audio #2
ID : 3
Format : AC-3
Format/Info : Audio Coding 3
Commercial name : Dolby Digital
Codec ID : A_AC3
Duration : 1 h 33 min
Bit rate mode : Constant
Bit rate : 192 kb/s
Channel(s) : 2 channels
Channel layout : L R
Sampling rate : 48.0 kHz
Frame rate : 31.250 FPS (1536 SPF)
Compression mode : Lossy
Stream size : 128 MiB (2%)
Title : Многоголосый, Neoclassica
Language : Russian
Service kind : Complete Main
Default : No
Forced : No
Audio #3
ID : 4
Format : AC-3
Format/Info : Audio Coding 3
Commercial name : Dolby Digital
Codec ID : A_AC3
Duration : 1 h 33 min
Bit rate mode : Constant
Bit rate : 192 kb/s
Channel(s) : 2 channels
Channel layout : L R
Sampling rate : 48.0 kHz
Frame rate : 31.250 FPS (1536 SPF)
Compression mode : Lossy
Stream size : 128 MiB (2%)
Title : Двухголосый, НТВ
Language : Russian
Service kind : Complete Main
Default : No
Forced : No
Audio #4
ID : 5
Format : AC-3
Format/Info : Audio Coding 3
Commercial name : Dolby Digital
Codec ID : A_AC3
Duration : 1 h 33 min
Bit rate mode : Constant
Bit rate : 192 kb/s
Channel(s) : 2 channels
Channel layout : L R
Sampling rate : 48.0 kHz
Frame rate : 31.250 FPS (1536 SPF)
Compression mode : Lossy
Stream size : 128 MiB (2%)
Title : Одноголосый, Леонид Володарский
Language : Russian
Service kind : Complete Main
Default : No
Forced : No
Audio #5
ID : 6
Format : AC-3
Format/Info : Audio Coding 3
Commercial name : Dolby Digital
Codec ID : A_AC3
Duration : 1 h 33 min
Bit rate mode : Constant
Bit rate : 192 kb/s
Channel(s) : 2 channels
Channel layout : L R
Sampling rate : 48.0 kHz
Frame rate : 31.250 FPS (1536 SPF)
Compression mode : Lossy
Stream size : 128 MiB (2%)
Language : French
Service kind : Complete Main
Default : No
Forced : No
Menu
00:00:00.000 : en:Chapitre 01
00:04:45.000 : en:Chapitre 02
00:09:45.000 : en:Chapitre 03
00:14:45.000 : en:Chapitre 04
00:19:45.000 : en:Chapitre 05
00:24:45.000 : en:Chapitre 06
00:29:45.000 : en:Chapitre 07
00:34:45.000 : en:Chapitre 08
00:39:45.000 : en:Chapitre 09
00:44:45.000 : en:Chapitre 10
00:49:45.000 : en:Chapitre 11
00:54:45.000 : en:Chapitre 12
00:59:45.000 : en:Chapitre 13
01:04:45.000 : en:Chapitre 14
01:09:45.000 : en:Chapitre 15
01:14:45.000 : en:Chapitre 16
01:19:45.000 : en:Chapitre 17
01:24:45.000 : en:Chapitre 18
01:29:45.000 : en:Chapitre 19




_________________
Проголосуй за трекер Открытый торрент трекер - RUS-MEDIA.ORG

Проголосуй Открытый торрент трекер - RUS-MEDIA.ORG


Вернуться к началу
 Профиль Отправить личное сообщение  
 
   Похожие торренты   Автор   Торрент   Размер 
В этой теме нет новых непрочитанных сообщений. Бросок в Монте-Карло / Monte Carlo or Bust! [боевик, мелодрама, комедия, 1969] BDRip 1080p, Avo

salma3

0 | 0

8.68 ГБ

В этой теме нет новых непрочитанных сообщений. Человек с золотым пистолетом / The Man with the Golden Gun [боевик, триллер, комедия, 1974] BDRip-HEVC 1080p, Dub [50th Anniversary Edition]

salma3

1 | 6

12.43 ГБ

В этой теме нет новых непрочитанных сообщений. Ульзана / Ulzana [Приключения, вестерн, 1974] HDRip, Dub

salma3

0 | 0

745.06 МБ

В этой теме нет новых непрочитанных сообщений. Уличный боец / Gekitotsu! Satsujin Ken [Боевик, 1974] BDRip 1080p, Avo

salma3

0 | 0

7.99 ГБ

В этой теме нет новых непрочитанных сообщений. Возвращение уличного бойца / Satsujin Ken 2 [Боевик, 1974] BDRip 1080p, Avo

salma3

0 | 0

7.15 ГБ

В этой теме нет новых непрочитанных сообщений. Якудза / The Yakuza (Сидни Поллак) [1974 г., Боевик, триллер, драма, криминал, BDRip 1080p] MVO, AVO, Eng

zorgi

0 | 0

14.73 ГБ

В этой теме нет новых непрочитанных сообщений. Громила и скороход / Thunderbolt and Lightfoot [драма, комедия, криминал, 1974] BDRip 720p, Mvo

salma3

1 | 3

4.37 ГБ


Начать новую тему Ответить на тему  [ 1 сообщение ] 




Для Мосгорсуда, Роскомнадзора и рекламодателей:: rstracker[собака]yandex.ru
cron