Торрент файл
скачать торрент магнет ссылка Добавлен: 22 окт 2019, 11:44
Размер: 4.37 ГБ
Сидеров: 1
Личеров: 2
Статус: (salma3)
Автор

СообщениеДобавлено: 22 окт 2019, 11:44 

Не в сети
Супермодератор
Аватара пользователя
Дата регистрации:
15 фев 2012, 16:44
Возраст: 32
Спасибо: 8321 / 2148
Сообщения: 97229
Год выхода: 1986
Жанр: боевик, приключения, комедия
Режиссер: Джил Беттман

В ролях: Джон Стэмос, Вэнити, Джин Симмонс, Джордж Лазенби, Роберт Инглунд, Тэра Бакмэн, Бранском Ричмонд

О фильме:
Лэнс собирается отомстить за смерть отца, погибшего от рук коварного злодея Велвета фон Рагнера. Велвет задумал уничтожить Лос-Анджелес, лишив его воды. С помощью сексапильного агента Данджи Диринг Лэнс преследует фон Рагнера и разрушает его планы.



Страна: США
Продолжительность: 01:36:17
Перевод: Авторский (одноголосый закадровый), любительский (одноголосый закадровый)

Файл
Качество: BDRip 720p
Видео: AVC, 1280x694, 23.976 fps, 5706 kbps
Аудио #1: AC3, 48 kHz, 2 ch, 192 kbps - Русский, AVO А.Смирнов
Аудио #2: AC3, 48 kHz, 2 ch, 192 kbps - Русский, AVO Л.Володарский
Аудио #3: AC3, 48 kHz, 2 ch, 192 kbps - Русский, VO Дружинина
Аудио #4: AC3, 48 kHz, 2 ch, 192 kbps - Английский, Original
Субтитры: English

Релиз от: &

Format : Matroska
Format version : Version 2
File size : 4.37 GiB
Duration : 1 h 36 min
Overall bit rate : 6 473 kb/s
Encoded date : UTC 2019-10-22 07:15:35
Writing application : mkvmerge v5.3.0 ('I could have danced') built on Feb 9 2012 10:38:07
Writing library : libebml v1.2.3 + libmatroska v1.3.0
Attachments : poster (2).jpg

Video
ID : 1
Format : AVC
Format/Info : Advanced Video Codec
Format profile : High@L4.1
Format settings : CABAC / 9 Ref Frames
Format settings, CABAC : Yes
Format settings, ReFrames : 9 frames
Codec ID : V_MPEG4/ISO/AVC
Duration : 1 h 36 min
Bit rate : 5 706 kb/s
Width : 1 280 pixels
Height : 694 pixels
Display aspect ratio : 1.85:1
Frame rate mode : Constant
Frame rate : 23.976 (24000/1001) FPS
Color space : YUV
Chroma subsampling : 4:2:0
Bit depth : 8 bits
Scan type : Progressive
Bits/(Pixel*Frame) : 0.268
Stream size : 3.76 GiB (86%)
Writing library : x264 core 157 r2945 72db437
Encoding settings : cabac=1 / ref=9 / deblock=1:-3:-3 / analyse=0x3:0x133 / me=umh / subme=11 / psy=1 / psy_rd=1.00:0.00 / mixed_ref=1 / me_range=32 / chroma_me=1 / trellis=2 / 8x8dct=1 / cqm=0 / deadzone=21,11 / fast_pskip=0 / chroma_qp_offset=-2 / threads=12 / lookahead_threads=3 / sliced_threads=0 / nr=0 / decimate=0 / interlaced=0 / bluray_compat=0 / constrained_intra=0 / bframes=11 / b_pyramid=2 / b_adapt=2 / b_bias=0 / direct=3 / weightb=1 / open_gop=0 / weightp=2 / keyint=240 / keyint_min=23 / scenecut=40 / intra_refresh=0 / rc_lookahead=60 / rc=2pass / mbtree=0 / bitrate=5706 / ratetol=1.0 / qcomp=0.75 / qpmin=0 / qpmax=69 / qpstep=4 / cplxblur=20.0 / qblur=0.5 / vbv_maxrate=50000 / vbv_bufsize=62500 / nal_hrd=none / filler=0 / ip_ratio=1.10 / pb_ratio=1.20 / aq=3:0.90
Language : English
Default : Yes
Forced : No
Color range : Limited
Color primaries : BT.709
Transfer characteristics : BT.709
Matrix coefficients : BT.709

Audio #1
ID : 2
Format : AC-3
Format/Info : Audio Coding 3
Commercial name : Dolby Digital
Codec ID : A_AC3
Duration : 1 h 36 min
Bit rate mode : Constant
Bit rate : 192 kb/s
Channel(s) : 2 channels
Channel layout : L R
Sampling rate : 48.0 kHz
Frame rate : 31.250 FPS (1536 SPF)
Bit depth : 16 bits
Compression mode : Lossy
Stream size : 133 MiB (3%)
Title : AVO А.Смирнов
Language : Russian
Service kind : Complete Main
Default : Yes
Forced : No

Audio #2
ID : 3
Format : AC-3
Format/Info : Audio Coding 3
Commercial name : Dolby Digital
Codec ID : A_AC3
Duration : 1 h 36 min
Bit rate mode : Constant
Bit rate : 192 kb/s
Channel(s) : 2 channels
Channel layout : L R
Sampling rate : 48.0 kHz
Frame rate : 31.250 FPS (1536 SPF)
Bit depth : 16 bits
Compression mode : Lossy
Stream size : 133 MiB (3%)
Title : AVO Л.Володарский
Language : Russian
Service kind : Complete Main
Default : No
Forced : No

Audio #3
ID : 4
Format : AC-3
Format/Info : Audio Coding 3
Commercial name : Dolby Digital
Codec ID : A_AC3
Duration : 1 h 36 min
Bit rate mode : Constant
Bit rate : 192 kb/s
Channel(s) : 2 channels
Channel layout : L R
Sampling rate : 48.0 kHz
Frame rate : 31.250 FPS (1536 SPF)
Bit depth : 16 bits
Compression mode : Lossy
Stream size : 133 MiB (3%)
Title : VO Дружинина
Language : Russian
Service kind : Complete Main
Default : No
Forced : No

Audio #4
ID : 5
Format : AC-3
Format/Info : Audio Coding 3
Commercial name : Dolby Digital
Codec ID : A_AC3
Duration : 1 h 36 min
Bit rate mode : Constant
Bit rate : 192 kb/s
Channel(s) : 2 channels
Channel layout : L R
Sampling rate : 48.0 kHz
Frame rate : 31.250 FPS (1536 SPF)
Bit depth : 16 bits
Compression mode : Lossy
Stream size : 133 MiB (3%)
Title : Original
Language : English
Service kind : Complete Main
Default : No
Forced : No

Text #1
ID : 6
Format : UTF-8
Codec ID : S_TEXT/UTF8
Codec ID/Info : UTF-8 Plain Text
Title : full
Language : English
Default : No
Forced : No

Text #2
ID : 7
Format : UTF-8
Codec ID : S_TEXT/UTF8
Codec ID/Info : UTF-8 Plain Text
Title : SDH
Language : English
Default : No
Forced : No

Menu
00:00:00.000 : :Chapter 01
00:03:12.066 : :Chapter 02
00:09:17.890 : :Chapter 03
00:18:27.981 : :Chapter 04
00:28:54.690 : :Chapter 05
00:39:21.650 : :Chapter 06
00:48:58.185 : :Chapter 07
00:55:25.447 : :Chapter 08
01:03:32.892 : :Chapter 09
01:11:37.042 : :Chapter 10
01:19:35.437 : :Chapter 11
01:32:34.924 : :Chapter 12



_________________
Проголосуй за трекер Открытый торрент трекер - RUS-MEDIA.ORG

Проголосуй Открытый торрент трекер - RUS-MEDIA.ORG


Вернуться к началу
 Профиль Отправить личное сообщение  
 
   Похожие торренты   Автор   Торрент   Размер 
В этой теме нет новых непрочитанных сообщений. Никогда не рано умирать / Never Too Young to Die [боевик, приключения, комедия, 1986] BDRip, Avo

salma3

0 | 0

1.37 ГБ

В этой теме нет новых непрочитанных сообщений. Не время умирать / No Time to Die [Боевик, триллер, приключения, 2021] WEB-DL 720p, Dub [iTunes]

salma3

54 | 50

5.38 ГБ

В этой теме нет новых непрочитанных сообщений. Не время умирать / No Time to Die [Боевик, триллер, приключения, 2021] WEB-DLRip, Dub [iTunes]

salma3

1 | 0

2.2 ГБ

В этой теме нет новых непрочитанных сообщений. Не время умирать / No Time to Die [Боевик, триллер, приключения, 2021] WEB-DLRip, Dub [iTunes]

salma3

69 | 14

1.47 ГБ

В этой теме нет новых непрочитанных сообщений. Победить или умереть / Do or Die [Боевик, приключения, 1991] BDRip 720p, Mvo

salma3

1 | 0

13.83 ГБ

В этой теме нет новых непрочитанных сообщений. Дикий пляж / Savage Beach [боевик, комедия, приключения, 1989] BDRip 720p, Avo

salma3

5 | 1

13.63 ГБ

В этой теме нет новых непрочитанных сообщений. Западня Венеры / Die Venusfalle [драма, 1986] VHSRip, Avo

salma3

0 | 0

1.37 ГБ


Начать новую тему Ответить на тему  [ 1 сообщение ] 




Для Мосгорсуда, Роскомнадзора и рекламодателей:: rstracker[собака]yandex.ru
cron