Торрент файл
скачать торрент магнет ссылка Добавлен: 13 окт 2019, 20:27
Размер: 8.78 ГБ
Сидеров: 0
Личеров: 0
Статус: (salma3)
Автор

СообщениеДобавлено: 13 окт 2019, 20:27 

Не в сети
Супермодератор
Аватара пользователя
Дата регистрации:
15 фев 2012, 16:44
Возраст: 32
Спасибо: 8320 / 2148
Сообщения: 97229
Год выхода: 2017
Жанр: Драма, мелодрама, музыка
Режиссер: Терренс Малик

В ролях: Натали Портман, Майкл Фассбендер, Райан Гослинг, Руни Мара, Кейт Бланшетт, Холли Хантер, Беренис Марло, Вэл Килмер, Люкке Ли, Оливия Грэйс Эпплгейт

О фильме:
История подростка Рио, который становится невольным свидетелем кровавой войны между легендарным бандитом Дикого Запада Билли Кидом по кличке Малыш Кид и жестоким шерифом Пэтом Гарреттом.



Страна: США
Продолжительность: 02:08:54
Перевод: Профессиональный (многоголосый, закадровый) [iTunes]

Файл
Качество: BDRip 720p
Формат: MKV
Кодек: MPEG-4 AVC
Видео: 1280x536 (2,40:1), 23,976 fps, MPEG-4 AVC ~ 8722 Кbps avg, 0.530 bit/pixel
Аудио: AC3, 48 kHz, 6 ch, ~384.00 kbps avg | русский | iTunes
Аудио: AC3, 48 kHz, 6 ch, ~640.00.00 kbps avg | английский | Оригинал
Субтитры: Русские (Full), английские (Full, SDH)

Общее
Уникальный идентификатор : 280801506511182998425516642275107713342 (0xD3406729D245577B7A7DFC5C4A82B13E)
Полное имя : D:Song.to.Song,2017.720p.BluRay.DD5.1..x264.mkv
Формат : Matroska
Версия формата : Version 4 / Version 2
Размер файла : 8,78 Гбайт
Продолжительность : 2 ч. 8 м.
Общий поток : 9748 Кбит/сек
Название фильма : Между нами музыка / Song to Song (2015)
Дата кодирования : UTC 2019-10-12 21:13:08
Программа кодирования : mkvmerge v38.0.0 ('The Silent Type') 64-bit
Библиотека кодирования : libebml v1.3.9 + libmatroska v1.5.2
Обложка : Yes
Attachments : cover.jpg / cover.jpg
Видео
Идентификатор : 1
Формат : AVC
Формат/Информация : Advanced Video Codec
Профиль формата : High@L4.1
Настройки формата : CABAC / 12 Ref Frames
Параметр CABAC формата : Да
Параметр RefFrames формата : 12 кадров
Идентификатор кодека : V_MPEG4/ISO/AVC
Продолжительность : 2 ч. 8 м.
Битрейт : 8722 Кбит/сек
Ширина : 1280 пикселей
Высота : 536 пикселей
Соотношение сторон : 2,40:1
Режим частоты кадров : Постоянный
Частота кадров : 23,976 (24000/1001) кадра/сек
Цветовое пространство : YUV
Субдискретизация насыщенности : 4:2:0
Битовая глубина : 8 бит
Тип развёртки : Прогрессивная
Бит/(Пиксели*Кадры) : 0.530
Размер потока : 7,85 Гбайт (89%)
Заголовок : SbR
Библиотека кодирования : x264 core 150 r2833+58 090e24f t_mod_Custom [8-bit@all X86_64]
Настройки программы : cabac=1 / ref=12 / deblock=1:-3:-3 / analyse=0x3:0x133 / me=umh / subme=11 / psy=1 / fade_compensate=0.00 / psy_rd=1.05:0.05 / mixed_ref=1 / me_range=32 / chroma_me=1 / trellis=2 / 8x8dct=1 / cqm=0 / deadzone=21,11 / fast_pskip=0 / chroma_qp_offset=-3 / threads=6 / lookahead_threads=1 / sliced_threads=0 / nr=0 / decimate=1 / interlaced=0 / bluray_compat=0 / constrained_intra=0 / fgo=0 / bframes=10 / b_pyramid=2 / b_adapt=2 / b_bias=0 / direct=3 / weightb=1 / open_gop=0 / weightp=2 / keyint=250 / keyint_min=23 / scenecut=40 / intra_refresh=0 / rc_lookahead=60 / rc=crf / mbtree=0 / crf=15.5000 / qcomp=0.65 / qpmin=0:0:0 / qpmax=69:69:69 / qpstep=4 / vbv_maxrate=62500 / vbv_bufsize=78125 / crf_max=0.0 / nal_hrd=none / filler=0 / ip_ratio=1.30 / pb_ratio=1.20 / aq=1:0.70 / aq-sensitivity=10.00 / aq-factor=1.00:1.00:1.00 / aq2=0 / aq3=0 / zones=0,372,crf=15.0/102292,102359,crf=14.0/102373,102374,crf=14.0/102375,102376,crf=14.0/102383,102385,crf=14.0/102400,102478,crf=14.0/102646,102672,crf=14.0
Язык : English
Default : Да
Forced : Нет
Цветовой диапазон : Limited
Основные цвета : BT.709
Характеристики трансфера : BT.709
Коэффициенты матрицы : BT.709
Аудио #1
Идентификатор : 2
Формат : AC-3
Формат/Информация : Audio Coding 3
Идентификатор кодека : A_AC3
Продолжительность : 2 ч. 8 м.
Вид битрейта : Постоянный
Битрейт : 384 Кбит/сек
Каналы : 6 каналов
Расположение каналов : Front: L C R, Side: L R, LFE
Частота : 48,0 КГц
Частота кадров : 31,250 кадров/сек (1536 SPF)
Битовая глубина : 16 бит
Метод сжатия : С потерями
Размер потока : 354 Мбайт (4%)
Заголовок : MVO | iTunes
Язык : Russian
Default : Да
Forced : Нет
Аудио #2
Идентификатор : 3
Формат : AC-3
Формат/Информация : Audio Coding 3
Идентификатор кодека : A_AC3
Продолжительность : 2 ч. 8 м.
Вид битрейта : Постоянный
Битрейт : 640 Кбит/сек
Каналы : 6 каналов
Расположение каналов : Front: L C R, Side: L R, LFE
Частота : 48,0 КГц
Частота кадров : 31,250 кадров/сек (1536 SPF)
Битовая глубина : 16 бит
Метод сжатия : С потерями
Размер потока : 590 Мбайт (7%)
Заголовок : Original
Язык : English
Default : Нет
Forced : Нет
Текст #1
Идентификатор : 4
Формат : UTF-8
Идентификатор кодека : S_TEXT/UTF8
Идентификатор кодека/Информация : UTF-8 Plain Text
Продолжительность : 2 ч. 2 м.
Битрейт : 46 бит/сек
ElementCount : 971
Размер потока : 41,4 Кбайт (0%)
Заголовок : Full
Язык : Russian
Default : Да
Forced : Нет
Текст #2
Идентификатор : 5
Формат : UTF-8
Идентификатор кодека : S_TEXT/UTF8
Идентификатор кодека/Информация : UTF-8 Plain Text
Продолжительность : 2 ч. 6 м.
Битрейт : 36 бит/сек
ElementCount : 1272
Размер потока : 33,6 Кбайт (0%)
Заголовок : Full
Язык : English
Default : Нет
Forced : Нет
Текст #3
Идентификатор : 6
Формат : UTF-8
Идентификатор кодека : S_TEXT/UTF8
Идентификатор кодека/Информация : UTF-8 Plain Text
Продолжительность : 2 ч. 7 м.
Битрейт : 46 бит/сек
ElementCount : 1550
Размер потока : 43,4 Кбайт (0%)
Заголовок : SDH
Язык : English
Default : Нет
Forced : Нет
Меню
00:00:00.000 : en:00:00:00.000
00:05:20.695 : en:00:05:20.695
00:11:44.245 : en:00:11:44.245
00:19:25.790 : en:00:19:25.790
00:26:51.193 : en:00:26:51.193
00:31:57.249 : en:00:31:57.249
00:38:45.240 : en:00:38:45.240
00:44:57.111 : en:00:44:57.111
00:49:30.509 : en:00:49:30.509
00:56:46.528 : en:00:56:46.528
01:04:52.722 : en:01:04:52.722
01:11:45.635 : en:01:11:45.635
01:16:17.531 : en:01:16:17.531
01:24:38.240 : en:01:24:38.240
01:31:05.251 : en:01:31:05.251
01:34:57.108 : en:01:34:57.108
01:44:31.974 : en:01:44:31.974
01:50:06.350 : en:01:50:06.350
01:56:02.789 : en:01:56:02.789
01:59:57.440 : en:01:59:57.440



_________________
Проголосуй за трекер Открытый торрент трекер - RUS-MEDIA.ORG

Проголосуй Открытый торрент трекер - RUS-MEDIA.ORG


Вернуться к началу
 Профиль Отправить личное сообщение  
 
   Похожие торренты   Автор   Торрент   Размер 
В этой теме нет новых непрочитанных сообщений. Между нами музыка / Песня за песней / Song to Song [Драма, мелодрама, музыка, 2017] BDRip, Mvo [iTunes]

salma3

0 | 0

2.18 ГБ

В этой теме нет новых непрочитанных сообщений. Между нами музыка / Песня за песней / Song to Song [Драма, мелодрама, музыка, 2017] BDRip, Mvo [iTunes]

salma3

0 | 0

1.46 ГБ

В этой теме нет новых непрочитанных сообщений. Между нами музыка / Song to Song [Драма, мелодрама, музыка, 2017] BDRip 1080p, Mvo [iTunes]

salma3

0 | 0

18.3 ГБ

В этой теме нет новых непрочитанных сообщений. Песня для Марион / Song for Marion [Драма, Комедия, Мелодрама, 2012] BDRip 1080p, Avo

salma3

0 | 0

6.8 ГБ

В этой теме нет новых непрочитанных сообщений. Песня имен / The Song of Names [Драма, история, 2019] WEB-DLRip, Dub [iTunes]

salma3

0 | 0

1.46 ГБ

В этой теме нет новых непрочитанных сообщений. Песнь тьмы / A Dark Song [Ужасы, драма, 2016] BDRip, Dub [iTunes]

salma3

0 | 1

1.45 ГБ

В этой теме нет новых непрочитанных сообщений. Грязные танцы / Dirty Dancing [драма, мелодрама, музыка, 1987] BDRip 1080p, Mvo [Remastered]

zorgi

0 | 0

8.43 ГБ


СообщениеДобавлено: 21 окт 2019, 01:17 

Не в сети
Аватара пользователя
Дата регистрации:
20 авг 2019, 08:20
Возраст: 46
Спасибо: 0 / 0
Сообщения: 7
Откуда: Algeria
In my opinion you are not right. Let's discuss.

_________________
http://beztchanje.ru


Вернуться к началу
 Профиль Отправить личное сообщение  
 
Начать новую тему Ответить на тему  [ Сообщений: 2 ] 




Для Мосгорсуда, Роскомнадзора и рекламодателей:: rstracker[собака]yandex.ru
cron