Торрент файл
скачать торрент магнет ссылка Добавлен: 11 окт 2019, 19:18
Размер: 10.26 ГБ
Сидеров: 4
Личеров: 5
Статус: (salma3)
Автор

СообщениеДобавлено: 11 окт 2019, 19:18 

Не в сети
Аватара пользователя
Дата регистрации:
17 май 2019, 21:15
Возраст: 25
Спасибо: 24 / 0
Сообщения: 262
Информация о фильме
Название: Капкан
Оригинальное название: Crawl
Год выхода: 2019
Жанр: Ужасы, триллер, драма, приключения
Режиссер: Александр Ажа
В ролях: Кая Скоделарио, Бэрри Пеппер, Морфидд Кларк, Росс Андерсон, Хосе Пальма, Джордж Сомнер, Энсон Бун, Эми Меткалф, Тина Прибичевич, Срна Васильевич, Колин Макфарлэйн, Аннамария Серда, Саванна Штейн, Йована Драгаш, Кристофер Ландри

О фильме: Когда на Флориду обрушивается мощнейший ураган, Хейли игнорирует приказы об эвакуации, чтобы попытаться встретиться в этом хаосе с пропавшим отцом. Она обнаруживает его тяжелораненым в подвале их дома, где они оказываются в ловушке из-за прибывающей воды. Но это меньшее, чего им стоит бояться...



Страна: США, Сербия, Канада
Студия: Paramount Pictures, Raimi Productions
Продолжительность: 01:27:32
Перевод: СУБТИТРЫ

Файл
Кодек: x.264
Качество: BDRip 1080p | Sub.Rus
Видео: MPEG-4 AVC, 14.9 Mбит/с, 1920x804, 23.976 кадр/с
Звук: ► Без Рекламы!
Аудио #1: Английский (DTS, 6 ch, 1509 Кбит/с, 48.0 KHz)
Субтитры: Русские (Переведено студией FOCS, полные), английские
Трейлер

Источник: Crawl.2019.1080p.BluRay.x264.DTS-CHD
General
Unique ID : 233906305577114504945034847246363246925 (0xAFF8B73F457D3FECB4840E40DA05C14D)
Complete name : Crawl.2019.BDRip.1080p.Sub.Rus.mkv
Format : Matroska
Format version : Version 4
File size : 10.3 GiB
Duration : 1 h 27 min
Overall bit rate : 16.8 Mb/s
Movie name : Crawl.2019.1080p.BluRay.x264.DTS-CHD
Encoded date : UTC 2019-10-11 07:45:45
Writing application : mkvmerge v7.1.0 ('Good Love') 64bit built on Jul 27 2014 13:06:55
Writing library : libebml v1.3.0 + libmatroska v1.4.1

Video
ID : 1
Format : AVC
Format/Info : Advanced Video Codec
Format profile : High@L4.1
Format settings : CABAC / 4 Ref Frames
Format settings, CABAC : Yes
Format settings, Reference fra : 4 frames
Codec ID : V_MPEG4/ISO/AVC
Duration : 1 h 27 min
Bit rate : 15.3 Mb/s
Width : 1 920 pixels
Height : 804 pixels
Display aspect ratio : 2.40:1
Frame rate mode : Constant
Frame rate : 23.976 (24000/1001) FPS
Color space : YUV
Chroma subsampling : 4:2:0
Bit depth : 8 bits
Scan type : Progressive
Bits/(Pixel*Frame) : 0.412
Stream size : 9.33 GiB (91%)
Writing library : x264 core 157 r2867+150 7e91e0e t_mod_Custom_2 [8-bit@all X86_64]
Encoding settings : cabac=1 / ref=4 / deblock=1:-3:-3 / analyse=0x3:0x133 / me=umh / subme=11 / psy=1 / fade_compensate=0.00 / psy_rd=0.90:0.10 / mixed_ref=1 / me_range=64 / chroma_me=1 / trellis=2 / 8x8dct=1 / cqm=0 / deadzone=21,11 / fast_pskip=0 / chroma_qp_offset=-4 / threads=25 / lookahead_threads=4 / sliced_threads=0 / nr=0 / decimate=1 / interlaced=0 / bluray_compat=0 / constrained_intra=0 / fgo=0 / bframes=8 / b_pyramid=2 / b_adapt=2 / b_bias=0 / direct=3 / weightb=1 / open_gop=0 / weightp=2 / keyint=250 / keyint_min=23 / scenecut=40 / intra_refresh=0 / rc_lookahead=60 / rc=crf / mbtree=0 / crf=18.0000 / qcomp=0.70 / qpmin=0:0:0 / qpmax=69:69:69 / qpstep=4 / vbv_maxrate=35000 / vbv_bufsize=35000 / crf_max=0.0 / nal_hrd=none / filler=0 / ip_ratio=1.40 / pb_ratio=1.30 / aq=3:1.00 / aq-sensitivity=10.00 / aq-factor=1.00:1.00:1.00 / aq2=0 / aq3=0
Language : English
Default : Yes
Forced : No

Audio
ID : 2
Format : DTS
Format/Info : Digital Theater Systems
Codec ID : A_DTS
Duration : 1 h 27 min
Bit rate mode : Constant
Bit rate : 1 509 kb/s
Channel(s) : 6 channels
Channel layout : C L R Ls Rs LFE
Sampling rate : 48.0 kHz
Frame rate : 93.750 FPS (512 SPF)
Bit depth : 24 bits
Compression mode : Lossy
Stream size : 945 MiB (9%)
Language : English
Default : Yes
Forced : No

Text #1
ID : 3
Format : UTF-8
Codec ID : S_TEXT/UTF8
Codec ID/Info : UTF-8 Plain Text
Duration : 1 h 24 min
Bit rate : 36 b/s
Count of elements : 589
Stream size : 22.8 KiB (0%)
Language : Russian
Default : Yes
Forced : No

Text #2
ID : 4
Format : UTF-8
Codec ID : S_TEXT/UTF8
Codec ID/Info : UTF-8 Plain Text
Duration : 1 h 19 min
Bit rate : 25 b/s
Count of elements : 604
Stream size : 14.9 KiB (0%)
Language : English
Default : No
Forced : No



Вернуться к началу
 Профиль Отправить личное сообщение  
 
   Похожие торренты   Автор   Торрент   Размер 
В этой теме нет новых непрочитанных сообщений. Капкан / Crawl [Ужасы, триллер, приключения, 2019] BDRip-AVC, Dub [Лицензия]

salma3

16 | 6

2.11 ГБ

В этой теме нет новых непрочитанных сообщений. Ледяной капкан / Centigrade [Триллер, драма, 2020] BDRip, Dub [iTunes]

salma3

7 | 1

1.42 ГБ

В этой теме нет новых непрочитанных сообщений. Солнцестояние / Midsommar [Ужасы, триллер, драма, 2019] BDRip 1080p, Dub [iTunes] [Режиссерская версия]

salma3

0 | 0

12.75 ГБ

В этой теме нет новых непрочитанных сообщений. Аннигиляция / Annihilation (Алекс Гарленд) [2018 г., ужасы, фантастика, триллер, драма, детектив, приключения, BDRip-HEVC 1080p] D

zorgi

5 | 0

5.47 ГБ

В этой теме нет новых непрочитанных сообщений. Рэмбо: Последняя кровь / Rambo: Last Blood [Боевик, триллер, приключения, 2019] BDRip 1080p, Dub [iTunes]

salma3

811 | 198

7.69 ГБ

В этой теме нет новых непрочитанных сообщений. Сторожка / The Lodge [Ужасы, триллер, драма, 2019] BDRip, Mvo [iTunes]

salma3

325 | 4

1.46 ГБ

В этой теме нет новых непрочитанных сообщений. Солнцестояние / Midsommar [Ужасы, триллер, драма, 2019] BDRip, Avo [Режиссерская версия]

salma3

0 | 0

2.91 ГБ


Начать новую тему Ответить на тему  [ 1 сообщение ] 




Для Мосгорсуда, Роскомнадзора и рекламодателей:: rstracker[собака]yandex.ru
cron