Торрент файл
скачать торрент магнет ссылка Добавлен: 07 окт 2019, 20:26
Размер: 8.24 ГБ
Сидеров: 0
Личеров: 0
Статус: (salma3)
Автор

СообщениеДобавлено: 07 окт 2019, 20:26 

Не в сети
Супермодератор
Аватара пользователя
Дата регистрации:
15 фев 2012, 16:44
Возраст: 32
Спасибо: 8321 / 2148
Сообщения: 97229
Страна: США
Жанр: Мелодрама
Год выпуска: 1954
Продолжительность: 01:41:53

Перевод: Профессиональный (многоголосый закадровый) 5 канал
Субтитры: Русские (Форсированные), английские

Режиссер: Жан Негулеско

В ролях: Клифтон Уэбб, Дороти МакГуайр, Джин Питерс, Луи Журдан, Мэгги МакНамара, Россано Брацци, Ховард Ст. Джон

Описание: "Три американки работают в Риме. Одна уже давно влюблена в своего босса, сладкоречивого писателя, который в ответ "ни в зуб ногой". Другая, нарушая строгие правила, крутит роман с итальянцем. Третья, новенькая, встречает настоящего принца и буквально теряет голову. Каждая из них надеется отыскать счастье в Риме, они бросают монетки в фонтан Треви, и... как поёт в фильме Синатра - три монетки в фонтане, каждая на счастье, но кому повезёт?.."



Файл
Качество: BDRip 1080p
Формат: MKV
Видео кодек: x264
Аудио кодек: AC3
Видео: MPEG4 Video (H264), 1920x752, 23.976fps, 11.0 Mbps
Аудио #1: Русский - Dolby AC3, 48000 Hz, 2ch, 192 kbps - Многоголосый, 5 канал
Аудио #2: Английский - Dolby AC3, 48000 Hz, 6ch, 384 kbps
Формат субтитров: Softsub (SRT)


General
Unique ID : 184812355590387260055914353899068274606 (0x8B0990A20870809C9CC0883DBCF137AE)
Complete name : D:Torrent21954.Three.Coins.Fountain.likko.mkv
Format : Matroska
Format version : Version 4
File size : 8.24 GiB
Duration : 1 h 41 min
Overall bit rate : 11.6 Mb/s
Movie name : 1954 Три монеты в фонтане/likko
Encoded date : UTC 2019-10-07 09:38:34
Writing application : mkvmerge v8.3.0 ('Over the Horizon') 64bit
Writing library : libebml v1.3.1 + libmatroska v1.4.2

Video
ID : 1
Format : AVC
Format/Info : Advanced Video Codec
Format profile : High@L4.1
Format settings : CABAC / 5 Ref Frames
Format settings, CABAC : Yes
Format settings, Reference : 5 frames
Codec ID : V_MPEG4/ISO/AVC
Duration : 1 h 41 min
Bit rate : 11.0 Mb/s
Width : 1 920 pixels
Height : 752 pixels
Display aspect ratio : 2.553
Frame rate mode : Constant
Frame rate : 23.976 (24000/1001) FPS
Color space : YUV
Chroma subsampling : 4:2:0
Bit depth : 8 bits
Scan type : Progressive
Bits/(Pixel*Frame) : 0.318
Stream size : 7.83 GiB (95%)
Title : 1954 Три монеты в фонтане
Writing library : x264 core 148 r2638 7599210
Encoding settings : cabac=1 / ref=5 / deblock=1:-1:-1 / analyse=0x3:0x133 / me=umh / subme=11 / psy=1 / psy_rd=1.00:0.15 / mixed_ref=1 / me_range=48 / chroma_me=1 / trellis=2 / 8x8dct=1 / cqm=0 / deadzone=21,11 / fast_pskip=0 / chroma_qp_offset=-3 / threads=18 / lookahead_threads=4 / sliced_threads=0 / nr=0 / decimate=1 / interlaced=0 / bluray_compat=0 / constrained_intra=0 / bframes=10 / b_pyramid=2 / b_adapt=2 / b_bias=0 / direct=3 / weightb=1 / open_gop=0 / weightp=2 / keyint=250 / keyint_min=23 / scenecut=40 / intra_refresh=0 / rc=2pass / mbtree=0 / bitrate=11000 / ratetol=1.0 / qcomp=0.60 / qpmin=0 / qpmax=69 / qpstep=4 / cplxblur=20.0 / qblur=0.5 / ip_ratio=1.40 / pb_ratio=1.30 / aq=2:1.00
Language : English
Default : Yes
Forced : No

Audio #1
ID : 2
Format : AC-3
Format/Info : Audio Coding 3
Commercial name : Dolby Digital
Codec ID : A_AC3
Duration : 1 h 41 min
Bit rate mode : Constant
Bit rate : 192 kb/s
Channel(s) : 2 channels
Channel layout : L R
Sampling rate : 48.0 kHz
Frame rate : 31.250 FPS (1536 SPF)
Compression mode : Lossy
Stream size : 140 MiB (2%)
Title : Многоголосый, 5 канал
Language : Russian
Service kind : Complete Main
Default : Yes
Forced : No

Audio #2
ID : 3
Format : AC-3
Format/Info : Audio Coding 3
Commercial name : Dolby Digital
Codec ID : A_AC3
Duration : 1 h 41 min
Bit rate mode : Constant
Bit rate : 384 kb/s
Channel(s) : 6 channels
Channel layout : L R C LFE Ls Rs
Sampling rate : 48.0 kHz
Frame rate : 31.250 FPS (1536 SPF)
Compression mode : Lossy
Stream size : 280 MiB (3%)
Language : English
Service kind : Complete Main
Default : No
Forced : No

Text #1
ID : 4
Format : UTF-8
Codec ID : S_TEXT/UTF8
Codec ID/Info : UTF-8 Plain Text
Duration : 20 s 600 ms
Bit rate : 217 b/s
Count of elements : 6
Stream size : 559 Bytes (0%)
Language : Russian
Default : Yes
Forced : Yes

Text #2
ID : 5
Format : UTF-8
Codec ID : S_TEXT/UTF8
Codec ID/Info : UTF-8 Plain Text
Duration : 1 h 41 min
Bit rate : 72 b/s
Count of elements : 1605
Stream size : 53.6 KiB (0%)
Language : English
Default : No
Forced : No

Menu
00:00:00.000 : en:Chapter 01
00:05:08.766 : en:Chapter 02
00:10:51.817 : en:Chapter 03
00:15:13.787 : en:Chapter 04
00:19:30.752 : en:Chapter 05
00:23:18.855 : en:Chapter 06
00:26:21.580 : en:Chapter 07
00:29:36.191 : en:Chapter 08
00:35:57.363 : en:Chapter 09
00:40:42.231 : en:Chapter 10
00:43:40.284 : en:Chapter 11
00:48:41.209 : en:Chapter 12
00:53:28.997 : en:Chapter 13
00:57:24.816 : en:Chapter 14
01:02:54.187 : en:Chapter 15
01:07:45.019 : en:Chapter 16
01:10:31.352 : en:Chapter 17
01:12:45.736 : en:Chapter 18
01:19:28.263 : en:Chapter 19
01:23:07.148 : en:Chapter 20
01:26:29.684 : en:Chapter 21
01:30:56.284 : en:Chapter 22
01:34:43.427 : en:Chapter 23
01:38:16.682 : en:Chapter 24






_________________
Проголосуй за трекер Открытый торрент трекер - RUS-MEDIA.ORG

Проголосуй Открытый торрент трекер - RUS-MEDIA.ORG


Вернуться к началу
 Профиль Отправить личное сообщение  
 
   Похожие торренты   Автор   Торрент   Размер 
В этой теме нет новых непрочитанных сообщений. Три желания / Three Wishes [Мелодрама, 1995] HDTVRip, Mvo

salma3

0 | 0

745.28 МБ

В этой теме нет новых непрочитанных сообщений. Три дня Кондора / Three Days of the Condor [Триллер, детектив, 1975] BDRip 1080p, Dub

salma3

0 | 0

16.28 ГБ

В этой теме нет новых непрочитанных сообщений. Три икса / xXx [Боевик, триллер, 2002] BDRip 1080p, Dub [15th Anniversary Edition]

salma3

2 | 0

11.65 ГБ

В этой теме нет новых непрочитанных сообщений. Три часа на побег / В упор / À bout portant [боевик, триллер, драма, 2010] BDRip 720p, Mvo

salma3

0 | 0

8.7 ГБ

В этой теме нет новых непрочитанных сообщений. Пианино / The Piano [Драма, мелодрама, 1993] BDRip 1080p, Mvo

salma3

0 | 0

8.26 ГБ

В этой теме нет новых непрочитанных сообщений. Инферно / Inferno [боевик, драма, мелодрама, 1999] BDRip 1080p, Mvo

salma3

0 | 0

8.55 ГБ

В этой теме нет новых непрочитанных сообщений. Мирный воин / Peaceful Warrior [драма, мелодрама, спорт, 2006] BDRip 1080p, Mvo

salma3

0 | 0

5.26 ГБ


Начать новую тему Ответить на тему  [ 1 сообщение ] 




Для Мосгорсуда, Роскомнадзора и рекламодателей:: rstracker[собака]yandex.ru
cron