Торрент файл
скачать торрент магнет ссылка Добавлен: 07 окт 2019, 10:55
Размер: 8.42 ГБ
Сидеров: 0
Личеров: 0
Статус: (salma3)
Автор

СообщениеДобавлено: 07 окт 2019, 10:55 

Не в сети
Аватара пользователя
Дата регистрации:
17 май 2019, 21:15
Возраст: 24
Спасибо: 23 / 0
Сообщения: 262
Информация о фильме
Название: Али, рули!
Оригинальное название: Stuber
Год выхода: 2019
Жанр: Боевик, триллер, комедия, криминал
Режиссер: Майкл Даус
В ролях: Кумэйл Нанджиани, Дэйв Батиста, Мира Сорвино, Натали Моралес, Ико Уайс, Бетти Гилпин, Карен Гиллан, Джимми Татро, Стив Хоуи, Рене Моран



О фильме: Скромный водитель Uber по имени Стю подбирает пассажира, который оказывается полицейским, идущим по следу жестокого убийцы. Таксист даже представить не мог, что теперь его ждет мучительное испытание, в ходе которого он будет отчаянно пытаться сохранить трезвый ум, жизнь и пятизвездочный рейтинг в приложении.

Страна: США
Студия: 20th Century Fox Film Corporation
Продолжительность: 01:33:24
Перевод: Дублированный | iTunes
Качество: BDRip 1080p
Видео: MPEG-4 AVC, 1920x804, 11.7 Mbit/s, 23.976 fps
Аудио #01: 48 kHz, AC3, 5.1, 384 Kbps | iTunes | RUS |
Аудио #02: 48 kHz, AC3, 2.0, 160 Kbps | iTunes | UKR |
Аудио #03: 48 kHz, AC3, 5.1, 640 Kbps | Оригинал | ENG |
Субтитры: Русские (Forced, full), украинские (Forced), английские


General
Unique ID : 85029306282042148033559033628456626907 (0x3FF80C78622AA0CFB3B47E334C0BAADB)
Complete name : D:Video111Stuber.2019.BDRip.1080p.seleZen.mkv
Format : Matroska
Format version : Version 4
File size : 8.42 GiB
Duration : 1 h 33 min
Overall bit rate : 12.9 Mb/s
Movie name : Stuber 2019 From селезень
Encoded date : UTC 2019-10-07 06:39:35
Writing application : mkvmerge v22.0.0 ('At The End Of The World') 64-bit
Writing library : libebml v1.3.5 + libmatroska v1.4.8

Video
ID : 1
Format : AVC
Format/Info : Advanced Video Codec
Format profile : High@L4.1
Format settings : CABAC / 4 Ref Frames
Format settings, CABAC : Yes
Format settings, Reference : 4 frames
Codec ID : V_MPEG4/ISO/AVC
Duration : 1 h 33 min
Bit rate : 11.7 Mb/s
Width : 1 920 pixels
Height : 804 pixels
Display aspect ratio : 2.40:1
Frame rate mode : Constant
Frame rate : 23.976 (24000/1001) FPS
Color space : YUV
Chroma subsampling : 4:2:0
Bit depth : 8 bits
Scan type : Progressive
Bits/(Pixel*Frame) : 0.317
Stream size : 7.65 GiB (91%)
Title : CHD
Writing library : x264 core 157 r2867+150 7e91e0e t_mod_Custom_2 [8-bit@all X86_64]
Encoding settings : cabac=1 / ref=4 / deblock=1:-3:-3 / analyse=0x3:0x133 / me=umh / subme=11 / psy=1 / fade_compensate=0.00 / psy_rd=0.90:0.10 / mixed_ref=1 / me_range=64 / chroma_me=1 / trellis=2 / 8x8dct=1 / cqm=0 / deadzone=21,11 / fast_pskip=0 / chroma_qp_offset=-4 / threads=25 / lookahead_threads=4 / sliced_threads=0 / nr=0 / decimate=1 / interlaced=0 / bluray_compat=0 / constrained_intra=0 / fgo=0 / bframes=8 / b_pyramid=2 / b_adapt=2 / b_bias=0 / direct=3 / weightb=1 / open_gop=0 / weightp=2 / keyint=250 / keyint_min=23 / scenecut=40 / intra_refresh=0 / rc_lookahead=60 / rc=crf / mbtree=0 / crf=18.0000 / qcomp=0.70 / qpmin=0:0:0 / qpmax=69:69:69 / qpstep=4 / vbv_maxrate=35000 / vbv_bufsize=35000 / crf_max=0.0 / nal_hrd=none / filler=0 / ip_ratio=1.40 / pb_ratio=1.30 / aq=3:1.00 / aq-sensitivity=10.00 / aq-factor=1.00:1.00:1.00 / aq2=0 / aq3=0
Language : English
Default : Yes
Forced : No

Audio #1
ID : 2
Format : AC-3
Format/Info : Audio Coding 3
Commercial name : Dolby Digital
Codec ID : A_AC3
Duration : 1 h 33 min
Bit rate mode : Constant
Bit rate : 384 kb/s
Channel(s) : 6 channels
Channel layout : L R C LFE Ls Rs
Sampling rate : 48.0 kHz
Frame rate : 31.250 FPS (1536 SPF)
Bit depth : 16 bits
Compression mode : Lossy
Stream size : 256 MiB (3%)
Title : iTunes
Language : Russian
Service kind : Complete Main
Default : Yes
Forced : Yes

Audio #2
ID : 3
Format : AC-3
Format/Info : Audio Coding 3
Commercial name : Dolby Digital
Codec ID : A_AC3
Duration : 1 h 33 min
Bit rate mode : Constant
Bit rate : 160 kb/s
Channel(s) : 2 channels
Channel layout : L R
Sampling rate : 48.0 kHz
Frame rate : 31.250 FPS (1536 SPF)
Bit depth : 16 bits
Compression mode : Lossy
Stream size : 107 MiB (1%)
Title : iTunes
Language : Ukrainian
Service kind : Complete Main
Default : No
Forced : No

Audio #3
ID : 4
Format : AC-3
Format/Info : Audio Coding 3
Commercial name : Dolby Digital
Codec ID : A_AC3
Duration : 1 h 33 min
Bit rate mode : Constant
Bit rate : 640 kb/s
Channel(s) : 6 channels
Channel layout : L R C LFE Ls Rs
Sampling rate : 48.0 kHz
Frame rate : 31.250 FPS (1536 SPF)
Bit depth : 16 bits
Compression mode : Lossy
Delay relative to video : 27 ms
Stream size : 428 MiB (5%)
Title : Original
Language : English
Service kind : Complete Main
Default : No
Forced : No

Text #1
ID : 5
Format : UTF-8
Codec ID : S_TEXT/UTF8
Codec ID/Info : UTF-8 Plain Text
Duration : 1 h 27 min
Bit rate : 1 b/s
Count of elements : 24
Stream size : 876 Bytes (0%)
Title : Forced
Language : Russian
Default : Yes
Forced : Yes

Text #2
ID : 6
Format : UTF-8
Codec ID : S_TEXT/UTF8
Codec ID/Info : UTF-8 Plain Text
Duration : 1 h 32 min
Bit rate : 114 b/s
Count of elements : 1819
Stream size : 77.4 KiB (0%)
Title : Full
Language : Russian
Default : No
Forced : No

Text #3
ID : 7
Format : UTF-8
Codec ID : S_TEXT/UTF8
Codec ID/Info : UTF-8 Plain Text
Duration : 1 h 27 min
Bit rate : 1 b/s
Count of elements : 20
Stream size : 725 Bytes (0%)
Title : Forced
Language : Ukrainian
Default : No
Forced : No

Text #4
ID : 8
Format : UTF-8
Codec ID : S_TEXT/UTF8
Codec ID/Info : UTF-8 Plain Text
Duration : 1 h 26 min
Bit rate : 83 b/s
Count of elements : 1795
Stream size : 52.9 KiB (0%)
Title : Full
Language : English
Default : No
Forced : No

Menu
00:00:00.000 : en:Chapter 01
00:05:52.435 : en:Chapter 02
00:09:57.222 : en:Chapter 03
00:14:14.854 : en:Chapter 04
00:17:30.675 : en:Chapter 05
00:19:46.310 : en:Chapter 06
00:22:40.276 : en:Chapter 07
00:27:33.402 : en:Chapter 08
00:31:30.889 : en:Chapter 09
00:33:19.247 : en:Chapter 10
00:35:39.888 : en:Chapter 11
00:40:13.036 : en:Chapter 12
00:45:05.202 : en:Chapter 13
00:49:10.114 : en:Chapter 14
00:52:36.987 : en:Chapter 15
00:56:46.111 : en:Chapter 16
01:01:54.252 : en:Chapter 17
01:05:43.648 : en:Chapter 18
01:08:37.196 : en:Chapter 19
01:13:31.157 : en:Chapter 20
01:16:44.517 : en:Chapter 21
01:19:07.534 : en:Chapter 22
01:23:54.780 : en:Chapter 23
01:27:49.598 : en:Chapter 24



Вернуться к началу
 Профиль Отправить личное сообщение  
 
   Похожие торренты   Автор   Торрент   Размер 
В этой теме нет новых непрочитанных сообщений. Али, рули! / Stuber [боевик, триллер, комедия, 2019] UHD BDRip 1080p, Dub [iTunes]

salma3

22 | 47

7.68 ГБ

В этой теме нет новых непрочитанных сообщений. Али, рули! / Stuber [боевик, триллер, комедия, 2019] BDRemux 1080p, Dub [iTunes]

salma3

0 | 0

23.03 ГБ

В этой теме нет новых непрочитанных сообщений. Али, рули! / Stuber [боевик, триллер, комедия, 2019] WEB-DL 1080p, Dub [iTunes]

salma3

1 | 9

5.09 ГБ

В этой теме нет новых непрочитанных сообщений. Али, рули! / Stuber [Боевик, триллер, комедия, 2019] UHD BDRip-HEVC 2160p, Dub [iTunes] [4K]

salma3

0 | 0

11.47 ГБ

В этой теме нет новых непрочитанных сообщений. Али, рули! / Stuber [Боевик, триллер, комедия, 2019] WEB-DL 720p, Dub [iTunes]

salma3

5 | 4

2.61 ГБ

В этой теме нет новых непрочитанных сообщений. Али, рули! / Stuber [боевик, триллер, комедия, 2019] WEB-DLRip, Dub [iTunes]

salma3

4 | 1

1.46 ГБ

В этой теме нет новых непрочитанных сообщений. Али, рули! / Stuber [боевик, триллер, комедия, криминал, 2019] WEB-DLRip, Dub [Чистый звук]

K15

0 | 0

1.35 ГБ


Начать новую тему Ответить на тему  [ 1 сообщение ] 




Для Мосгорсуда, Роскомнадзора и рекламодателей:: rstracker[собака]yandex.ru
cron