Торрент файл
скачать торрент магнет ссылка Добавлен: 30 сен 2019, 11:21
Размер: 26.84 ГБ
Сидеров: 0
Личеров: 0
Статус: (salma3)
Автор

СообщениеДобавлено: 30 сен 2019, 11:21 

Не в сети
Супермодератор
Аватара пользователя
Дата регистрации:
15 фев 2012, 16:44
Возраст: 32
Спасибо: 8325 / 2148
Сообщения: 97229
Год выхода: 2018
Жанр: Фэнтези, боевик, приключения
Режиссер: Дон Майкл Пол

В ролях: Нэйтан Джонс, Зэк Макгоун, Питер Менса, Кэти Луиз Саундерс, Нг Мэйлин, Ховард Чарльз, Перл Туси, Инге Бекманн, Питер Джессоп, Тамер Барджаг

О фильме:
Царь Скорпионов объединяется с воином-женщиной по имени Тала, сестрой нубийского царя. Вместе они ищут легендарную реликвию, известную как «Книга душ», которая поможет им победить ужасного монстра.



Страна: США
Продолжительность: 01:41:51
Перевод: Дублированный (канал Че!)
Субтитры: Английские (Full, SDH)

Релиз от: NNMClub
Качество: BDRemux 1080p
Видео: AVC/H.264, 1920x1080, (16:9), ~32.6 Mbps, 23.976 fps
Аудио 1: AC3, 2 ch, 192 Kbps - Русский
Аудио 2: DTS-HD MA, 6 ch, 4530 Kbps - Английский
Аудио 3: AC3, 6 ch, 448 Kbps - Английский

General
Unique ID : 199830682323834951017626891185770678324 (0x9655FD4F2EBF464B16CCE31C24B34834)
Complete name : E:The.Scorpion.King.Book.of.Souls.2018.BDRemux.1080p.NNMClub.mkv
Format : Matroska
Format version : Version 4
File size : 26.8 GiB
Duration : 1 h 41 min
Overall bit rate mode : Variable
Overall bit rate : 37.7 Mb/s
Movie name : The Scorpion King: Book of Souls (2018) | NNMClub
Encoded date : UTC 2019-09-29 13:28:22
Writing application : mkvmerge v37.0.0 ('Leave It') 64-bit
Writing library : libebml v1.3.9 + libmatroska v1.5.2
Cover : Yes
Attachments : Cover.jpg

Video
ID : 1
Format : AVC
Format/Info : Advanced Video Codec
Format profile : High@L4.1
Format settings : CABAC / 4 Ref Frames
Format settings, CABAC : Yes
Format settings, Reference : 4 frames
Codec ID : V_MPEG4/ISO/AVC
Duration : 1 h 41 min
Bit rate mode : Variable
Bit rate : 32.6 Mb/s
Maximum bit rate : 35.7 Mb/s
Width : 1 920 pixels
Height : 1 080 pixels
Display aspect ratio : 16:9
Frame rate mode : Constant
Frame rate : 23.976 (24000/1001) FPS
Color space : YUV
Chroma subsampling : 4:2:0
Bit depth : 8 bits
Scan type : Progressive
Bits/(Pixel*Frame) : 0.655
Stream size : 23.2 GiB (86%)
Title : The Scorpion King: Book of Souls (2018)
Language : English
Default : Yes
Forced : No

Audio #1
ID : 2
Format : AC-3
Format/Info : Audio Coding 3
Commercial name : Dolby Digital
Codec ID : A_AC3
Duration : 1 h 41 min
Bit rate mode : Constant
Bit rate : 192 kb/s
Channel(s) : 2 channels
Channel layout : L R
Sampling rate : 48.0 kHz
Frame rate : 31.250 FPS (1536 SPF)
Compression mode : Lossy
Stream size : 140 MiB (1%)
Title : DUB | Канал Че!
Language : Russian
Service kind : Complete Main
Default : Yes
Forced : No

Audio #2
ID : 3
Format : DTS XLL
Format/Info : Digital Theater Systems
Commercial name : DTS-HD Master Audio
Codec ID : A_DTS
Duration : 1 h 41 min
Bit rate mode : Variable
Bit rate : 4 530 kb/s
Channel(s) : 6 channels
Channel layout : C L R Ls Rs LFE
Sampling rate : 48.0 kHz
Frame rate : 93.750 FPS (512 SPF)
Bit depth : 24 bits
Compression mode : Lossless
Stream size : 3.22 GiB (12%)
Title : Original
Language : English
Default : No
Forced : No

Audio #3
ID : 4
Format : AC-3
Format/Info : Audio Coding 3
Commercial name : Dolby Digital
Codec ID : A_AC3
Duration : 1 h 41 min
Bit rate mode : Constant
Bit rate : 448 kb/s
Channel(s) : 6 channels
Channel layout : L R C LFE Ls Rs
Sampling rate : 48.0 kHz
Frame rate : 31.250 FPS (1536 SPF)
Compression mode : Lossy
Stream size : 326 MiB (1%)
Title : Original
Language : English
Service kind : Complete Main
Default : No
Forced : No

Text #1
ID : 5
Format : UTF-8
Codec ID : S_TEXT/UTF8
Codec ID/Info : UTF-8 Plain Text
Duration : 1 h 36 min
Bit rate : 32 b/s
Count of elements : 770
Stream size : 23.1 KiB (0%)
Title : Full
Language : English
Default : No
Forced : No

Text #2
ID : 6
Format : UTF-8
Codec ID : S_TEXT/UTF8
Codec ID/Info : UTF-8 Plain Text
Duration : 1 h 36 min
Bit rate : 34 b/s
Count of elements : 833
Stream size : 24.4 KiB (0%)
Title : SDH
Language : English
Default : No
Forced : No

Menu
00:00:00.000 : en:00:00:00.000
00:06:24.134 : en:00:06:24.134
00:13:16.796 : en:00:13:16.796
00:15:57.623 : en:00:15:57.623
00:17:34.303 : en:00:17:34.303
00:22:11.288 : en:00:22:11.288
00:27:51.211 : en:00:27:51.211
00:33:47.776 : en:00:33:47.776
00:39:04.676 : en:00:39:04.676
00:43:53.047 : en:00:43:53.047
00:49:46.108 : en:00:49:46.108
00:53:49.518 : en:00:53:49.518
01:00:51.648 : en:01:00:51.648
01:07:23.456 : en:01:07:23.456
01:12:03.152 : en:01:12:03.152
01:18:39.381 : en:01:18:39.381
01:21:26.715 : en:01:21:26.715
01:25:23.994 : en:01:25:23.994
01:30:36.514 : en:01:30:36.514
01:36:59.897 : en:01:36:59.897



_________________
Проголосуй за трекер Открытый торрент трекер - RUS-MEDIA.ORG

Проголосуй Открытый торрент трекер - RUS-MEDIA.ORG


Вернуться к началу
 Профиль Отправить личное сообщение  
 
   Похожие торренты   Автор   Торрент   Размер 
В этой теме нет новых непрочитанных сообщений. Царь Скорпионов: Книга Душ / The Scorpion King: Book of Souls [Фэнтези, боевик, приключения, 2018] BDRip 1080p, Dub

salma3

3 | 9

7.79 ГБ

В этой теме нет новых непрочитанных сообщений. Сокровище нации: Книга Тайн / National Treasure: Book of Secrets [боевик, комедия, приключения, 2007] WEB-DL 1080p, Dub [Open Matte]

salma3

0 | 0

11.75 ГБ

В этой теме нет новых непрочитанных сообщений. King's man: Начало / The King's Man [Боевик, комедия, приключения, 2020] WEBRip 1080p, Dub [Трейлер №2]

K15

30 | 0

661.97 МБ

В этой теме нет новых непрочитанных сообщений. Книга Бобы Фетта / The Book of Boba Fett (Сезон 1 , Серия 1- 5 из 7 ) (Роберт Родригес ) [2021,Фэнтези, боевик,WEB-DL- HEVC - 1080p] [Flarrow Film + LostFilm+HDRezka +AlexFilm +Ukr + Eng]+[Subs Rus ,Ukr ,ENG]

Враг Нароода

0 | 0

8.62 ГБ

В этой теме нет новых непрочитанных сообщений. Король Лев / The Lion King [мюзикл, фэнтези, приключения, 2019] Blu-ray EUR 1080p, Dub [Лицензия]

salma3

0 | 0

41.53 ГБ

В этой теме нет новых непрочитанных сообщений. Книга Джунглей / The Jungle Book [Приключения, мелодрама, семейный, 1994] WEB-DLRip-AVC, Dvo

salma3

2 | 1

2.18 ГБ

В этой теме нет новых непрочитанных сообщений. Годзилла 2: Король монстров / Godzilla: King of the Monsters [Фантастика, фэнтези, боевик, 2019] BDRip 1080p, Dub [iTunes] [3D-Video]

salma3

14 | 0

14 ГБ


Начать новую тему Ответить на тему  [ 1 сообщение ] 




Для Мосгорсуда, Роскомнадзора и рекламодателей:: rstracker[собака]yandex.ru
cron
cron