COVID-19 - Последняя информация о коронавирусе на сайте Минздрава




Торрент файл
скачать торрент магнет ссылка Добавлен: 29 сен 2019, 23:42
Размер: 11.75 ГБ
Сидеров: 0
Личеров: 0
Статус: (salma3)
Автор

СообщениеДобавлено: 29 сен 2019, 23:42 

Не в сети
Супермодератор
Аватара пользователя
Дата регистрации:
15 фев 2012, 16:44
Возраст: 31
Спасибо: 8280 / 2148
Сообщения: 96711
Год выхода: 2007
Жанр: боевик, комедия, приключения
Режиссер: Джон Тёртелтауб

В ролях: Николас Кейдж, Дайан Крюгер, Джастин Барта, Джон Войт, Хелен Миррен, Эд Харрис, Харви Кейтель, Брюс Гринвуд, Тай Буррелл

О фильме:
Охотник за сокровищами Бен Гейтс, вооружившись поддержкой любимой женщины, верного друга Райли, а также своих родителей, отправляется на поиски затерянного золотого города. Только пройдя сквозь череду невероятных и увлекательных приключений, Бену удастся очистить имя своего предка от обвинений в убийстве Авраама Линкольна. Но не все так просто — параллельные поиски города ведет и некий Митч Уилкинсон, готовый на все ради достижения цели.



Страна: США
Продолжительность: 02:04:33
Перевод: Профессиональный (дублированный), Профессиональный (многоголосый, закадровый), Авторский (одноголосый, закадровый)

Файл
Качество: WEB-DL 1080p
Формат: MKV
Видео: 1920x1080, 23.976 fps, MPEG-4 AVC, 11.5 Mb/s
Аудио 1: Russian: 48 kHz, AC3, 6 ch, ~448 kbps avg - Дубляж
Аудио 2: Russian: 48 kHz, AC3, 6 ch, ~448 kbps avg - Superbit
Аудио 3: Russian: 48 kHz, AC3, 6 ch, ~448 kbps avg - Гаврилов
Аудио 4: English: 48 kHz, EAC3, 6 ch, ~640 kbps avg
Субтитры: Русские (full), английские (full)

Исходник видео: Amazon STARZ - периодически появляется логотип.

General
Unique ID : 189093643171189805022298932959378632164 (0x8E421C6860846BE7955C31865C236DE4)
Complete name : F:National.Treasure.Book.of.Secrets.2007.Open.Matte.1080p.mkv
Format : Matroska
Format version : Version 4
File size : 11.7 GiB
Duration : 2 h 4 min
Overall bit rate mode : Variable
Overall bit rate : 13.5 Mb/s
Movie name : National.Treasure.Book.of.Secrets.2007.Open.Matte.1080p.WEB-DL.DD+5.1.H.264-spartanec163
Encoded date : UTC 2019-09-29 16:46:00
Writing application : mkvmerge v8.3.0 ('Over the Horizon') 32bit
Writing library : libebml v1.3.1 + libmatroska v1.4.2

Video
ID : 1
Format : AVC
Format/Info : Advanced Video Codec
Format profile : High@L4
Format settings : CABAC / 4 Ref Frames
Format settings, CABAC : Yes
Format settings, Reference : 4 frames
Codec ID : V_MPEG4/ISO/AVC
Duration : 2 h 4 min
Bit rate mode : Variable
Bit rate : 11.5 Mb/s
Maximum bit rate : 15.0 Mb/s
Width : 1 920 pixels
Height : 1 080 pixels
Display aspect ratio : 16:9
Frame rate mode : Constant
Frame rate : 23.976 (24000/1001) FPS
Color space : YUV
Chroma subsampling : 4:2:0
Bit depth : 8 bits
Scan type : Progressive
Bits/(Pixel*Frame) : 0.232
Stream size : 10.0 GiB (85%)
Title : WEB-DL 1080p (Amazon)
Language : English
Default : Yes
Forced : No
Color range : Limited
Color primaries : BT.709
Transfer characteristics : BT.709
Matrix coefficients : BT.709

Audio #1
ID : 2
Format : AC-3
Format/Info : Audio Coding 3
Commercial name : Dolby Digital
Codec ID : A_AC3
Duration : 2 h 4 min
Bit rate mode : Constant
Bit rate : 448 kb/s
Channel(s) : 6 channels
Channel layout : L R C LFE Ls Rs
Sampling rate : 48.0 kHz
Frame rate : 31.250 FPS (1536 SPF)
Bit depth : 16 bits
Compression mode : Lossy
Stream size : 399 MiB (3%)
Title : DUB
Language : Russian
Service kind : Complete Main
Default : Yes
Forced : No

Audio #2
ID : 3
Format : AC-3
Format/Info : Audio Coding 3
Commercial name : Dolby Digital
Codec ID : A_AC3
Duration : 2 h 4 min
Bit rate mode : Constant
Bit rate : 448 kb/s
Channel(s) : 6 channels
Channel layout : L R C LFE Ls Rs
Sampling rate : 48.0 kHz
Frame rate : 31.250 FPS (1536 SPF)
Bit depth : 16 bits
Compression mode : Lossy
Stream size : 399 MiB (3%)
Title : MVO
Language : Russian
Service kind : Complete Main
Default : No
Forced : No

Audio #3
ID : 4
Format : AC-3
Format/Info : Audio Coding 3
Commercial name : Dolby Digital
Codec ID : A_AC3
Duration : 2 h 4 min
Bit rate mode : Constant
Bit rate : 448 kb/s
Channel(s) : 6 channels
Channel layout : L R C LFE Ls Rs
Sampling rate : 48.0 kHz
Frame rate : 31.250 FPS (1536 SPF)
Bit depth : 16 bits
Compression mode : Lossy
Stream size : 399 MiB (3%)
Title : AVO Гаврилов
Language : Russian
Service kind : Complete Main
Default : No
Forced : No

Audio #4
ID : 5
Format : E-AC-3
Format/Info : Enhanced AC-3
Commercial name : Dolby Digital Plus
Codec ID : A_EAC3
Duration : 2 h 4 min
Bit rate mode : Constant
Bit rate : 640 kb/s
Channel(s) : 6 channels
Channel layout : L R C LFE Ls Rs
Sampling rate : 48.0 kHz
Frame rate : 31.250 FPS (1536 SPF)
Compression mode : Lossy
Stream size : 570 MiB (5%)
Language : English
Service kind : Complete Main
Default : No
Forced : No

Text #1
ID : 6
Format : UTF-8
Codec ID : S_TEXT/UTF8
Codec ID/Info : UTF-8 Plain Text
Duration : 1 h 57 min
Bit rate : 105 b/s
Count of elements : 1529
Stream size : 91.1 KiB (0%)
Language : Russian
Default : No
Forced : No

Text #2
ID : 7
Format : UTF-8
Codec ID : S_TEXT/UTF8
Codec ID/Info : UTF-8 Plain Text
Duration : 1 h 56 min
Bit rate : 72 b/s
Count of elements : 1987
Stream size : 61.8 KiB (0%)
Language : English
Default : No
Forced : No



_________________
Проголосуй за трекер Открытый торрент трекер - RUS-MEDIA.ORG

Проголосуй Открытый торрент трекер - RUS-MEDIA.ORG


Скачать книги и аудио книги через торрент


Вернуться к началу
 Профиль Отправить личное сообщение  
 
   Похожие торренты   Автор   Торрент   Размер 
В этой теме нет новых непрочитанных сообщений. Сокровище нации: Книга Тайн / National Treasure: Book of Secrets [боевик, триллер, детектив, 2007] WEB-DLRip-AVC, Dub [Open Matte]

salma3

0 | 0

2.45 ГБ

В этой теме нет новых непрочитанных сообщений. Сокровище нации: Книга тайн / National Treasure: Book of Secrets [Боевик, приключения, 2007] BDRemux 1080p, Dub

salma3

0 | 0

26.79 ГБ

В этой теме нет новых непрочитанных сообщений. Сокровище нации / National Treasure [приключения, 2004] BDRemux 1080p, Dub

salma3

0 | 0

29.38 ГБ

В этой теме нет новых непрочитанных сообщений. Книга Илая / The Book of Eli [боевик, триллер, драма, 2010] WEB-DL 1080p, Dub [Open Matte]

salma3

0 | 0

7.58 ГБ

В этой теме нет новых непрочитанных сообщений. Сокровище Амазонки / The Rundown [боевик, триллер, приключения, 2003] WEB-DL 1080p, Dub [Open Matte]

salma3

0 | 112

10.09 ГБ

В этой теме нет новых непрочитанных сообщений. Книга Илая / The Book of Eli [боевик, триллер, драма, 2010] WEB-DLRip-AVC, Dub [Open Matte]

salma3

0 | 0

1.72 ГБ

В этой теме нет новых непрочитанных сообщений. Пристрели их / Shoot 'Em Up [Боевик, триллер, комедия, 2007] WEB-DL 1080p, Dub [Open Matte]

salma3

0 | 1

13.26 ГБ


Начать новую тему Ответить на тему  [ 1 сообщение ] 




Для Мосгорсуда, Роскомнадзора и рекламодателей:: rstracker[собака]yandex.ru
cron