Торрент файл
скачать торрент магнет ссылка Добавлен: 29 сен 2019, 14:06
Размер: 5.68 ГБ
Сидеров: 1
Личеров: 1
Статус: (salma3)
Автор

СообщениеДобавлено: 29 сен 2019, 14:06 

Не в сети
Супермодератор
Аватара пользователя
Дата регистрации:
15 фев 2012, 16:44
Возраст: 30
Спасибо: 8185 / 2148
Сообщения: 95725
Год выхода: 2011
Жанр: Комедия
Режиссер: Кристи Уилл

В ролях: Джон Уайт, Мирсеа Монро, Дов Тифенбах, Вивиан Банг, Морган Фэйрчайлд, Саймон Рекс, Кевин П. Фарли, Кейлен Дэвидсон, Доун Оливери, Дуглас Спэйн, Дэвид Филлипс, Джон Фарли, Элизабет Дэйли, Кристофер Редман, Сесили Дженкинс, Карисса Блейдс, Фэллон Гудсон, Донна Пьерони, Джулс Мандель

О фильме:
Kомедия о Джеке, модели нижнего белья из Лос-Анджелеса. Работа у парня не слишком прибыльная, а потому он находит себе дополнительный заработок: эскорт у дам определенного возраста.



Страна: США
Продолжительность: 01:30:34
Перевод: Профессиональный [многоголосый]

Файл
Кодек: AVC
Качество: WEBRip 1080p | Boy.Toy.2011.1080p.WEBRip.DD5.1.x264-KiNGS
Видео: MPEG-4 AVC, 8141 Kбит/с, 1920x1080, 23.976 кадр/с
Аудио #1: Русский (АС3, 2 ch, 192 Кбит/с, 48.0 KHz)
Аудио #2: Английский (E-АС3, 6 ch, 640 Кбит/с, 48.0 KHz)
Субтитры: английские

Источник: Boy.Toy.2011.1080p.WEBRip.DD5.1.x264-KiNGS
General
Unique ID : 229933516169555562653235986891253017868 (0xACFB959B4C7476C2873879C4B11CED0C)
Complete name : Boy.Toy.2011.WEBRip.1080p.mkv
Format : Matroska
Format version : Version 4
File size : 5.68 GiB
Duration : 1 h 30 min
Overall bit rate mode : Variable
Overall bit rate : 8 975 kb/s
Encoded date : UTC 2019-09-29 00:03:34
Writing application : mkvmerge v7.1.0 ('Good Love') 64bit built on Jul 27 2014 13:06:55
Writing library : libebml v1.3.0 + libmatroska v1.4.1

Video
ID : 1
Format : AVC
Format/Info : Advanced Video Codec
Format profile : High@L4
Format settings : CABAC / 4 Ref Frames
Format settings, CABAC : Yes
Format settings, Reference fra : 4 frames
Codec ID : V_MPEG4/ISO/AVC
Duration : 1 h 30 min
Bit rate mode : Variable
Bit rate : 8 141 kb/s
Maximum bit rate : 15.0 Mb/s
Width : 1 920 pixels
Height : 1 080 pixels
Display aspect ratio : 16:9
Frame rate mode : Constant
Frame rate : 23.976 (24000/1001) FPS
Color space : YUV
Chroma subsampling : 4:2:0
Bit depth : 8 bits
Scan type : Progressive
Bits/(Pixel*Frame) : 0.164
Stream size : 5.15 GiB (91%)
Writing library : x264 core 148 r2623 d5b2374
Encoding settings : cabac=1 / ref=4 / deblock=1:-1:-1 / analyse=0x3:0x133 / me=umh / subme=9 / psy=1 / psy_rd=1.00:0.15 / mixed_ref=1 / me_range=24 / chroma_me=1 / trellis=2 / 8x8dct=1 / cqm=0 / deadzone=21,11 / fast_pskip=1 / chroma_qp_offset=-3 / threads=34 / lookahead_threads=5 / sliced_threads=0 / nr=150 / decimate=1 / interlaced=0 / bluray_compat=0 / constrained_intra=0 / bframes=8 / b_pyramid=2 / b_adapt=2 / b_bias=0 / direct=3 / weightb=1 / open_gop=0 / weightp=2 / keyint=120 / keyint_min=61 / scenecut=0 / intra_refresh=0 / rc_lookahead=120 / rc=crf / mbtree=1 / crf=18.0 / qcomp=0.60 / qpmin=0 / qpmax=69 / qpstep=4 / vbv_maxrate=15000 / vbv_bufsize=31250 / crf_max=0.0 / nal_hrd=vbr / filler=0 / ip_ratio=1.40 / aq=3:1.00
Language : English
Default : Yes
Forced : No
Color range : Limited
Color primaries : BT.709
Transfer characteristics : BT.709
Matrix coefficients : BT.709

Audio #1
ID : 2
Format : AC-3
Format/Info : Audio Coding 3
Commercial name : Dolby Digital
Codec ID : A_AC3
Duration : 1 h 30 min
Bit rate mode : Constant
Bit rate : 192 kb/s
Channel(s) : 2 channels
Channel layout : L R
Sampling rate : 48.0 kHz
Frame rate : 31.250 FPS (1536 SPF)
Bit depth : 16 bits
Compression mode : Lossy
Stream size : 124 MiB (2%)
Title : MVO
Language : Russian
Service kind : Complete Main
Default : Yes
Forced : No

Audio #2
ID : 3
Format : E-AC-3
Format/Info : Enhanced AC-3
Commercial name : Dolby Digital Plus
Codec ID : A_EAC3
Duration : 1 h 30 min
Bit rate mode : Constant
Bit rate : 640 kb/s
Channel(s) : 6 channels
Channel layout : L R C LFE Ls Rs
Sampling rate : 48.0 kHz
Frame rate : 31.250 FPS (1536 SPF)
Compression mode : Lossy
Stream size : 415 MiB (7%)
Language : English
Service kind : Complete Main
Default : No
Forced : No

Text #1
ID : 4
Format : UTF-8
Codec ID : S_TEXT/UTF8
Codec ID/Info : UTF-8 Plain Text
Duration : 1 h 27 min
Bit rate : 92 b/s
Count of elements : 1721
Stream size : 59.7 KiB (0%)
Language : English
Default : No
Forced : No

Text #2
ID : 5
Format : UTF-8
Codec ID : S_TEXT/UTF8
Codec ID/Info : UTF-8 Plain Text
Duration : 1 h 30 min
Bit rate : 99 b/s
Count of elements : 1893
Stream size : 65.8 KiB (0%)
Title : SDH
Language : English
Default : No
Forced : No


_________________
Проголосуй за трекер Открытый торрент трекер - RUS-MEDIA.ORG

Проголосуй Открытый торрент трекер - RUS-MEDIA.ORG


Скачать книги и аудио книги через торрент


Вернуться к началу
 Профиль Отправить личное сообщение  
 
   Похожие торренты   Автор   Торрент   Размер 
В этой теме нет новых непрочитанных сообщений. Мальчик-игрушка / Boy Toy [Комедия, 2011] DVDRip, Mvo

salma3

25 | 16

1.37 ГБ

В этой теме нет новых непрочитанных сообщений. Последний мальчик / The Last Boy [фантастика, драма, 2019] WEBRip, Mvo

salma3

0 | 0

1.46 ГБ

В этой теме нет новых непрочитанных сообщений. Мальчик по имени Парусник / A Boy Called Sailboat [Драма, комедия, семейный, 2018] WEB-DL 1080p, Mvo

salma3

6 | 2

3.49 ГБ

В этой теме нет новых непрочитанных сообщений. Красивый мальчик / Beautiful Boy [Драма, биография, 2018] BDRip 1080p, Mvo

salma3

0 | 0

11.68 ГБ

В этой теме нет новых непрочитанных сообщений. Мой мальчик Джек / My Boy Jack [военная драма, 2007] WEB-DL 1080p, Mvo

salma3

0 | 0

3.28 ГБ

В этой теме нет новых непрочитанных сообщений. Красивый мальчик / Beautiful Boy [Драма, биография, 2018] WEBRip 720p, Dvo

salma3

47 | 3

2.69 ГБ

В этой теме нет новых непрочитанных сообщений. Парень из пузыря / Bubble Boy [мелодрама, комедия, приключения, 2001] WEBRip 1080p, Mvo [СТС]

salma3

79 | 58

8.12 ГБ


Начать новую тему Ответить на тему  [ 1 сообщение ] 




Для Мосгорсуда, Роскомнадзора и рекламодателей:: mosgorsud-torrent[собачка]yandex.ru
cron