COVID-19 - Последняя информация о коронавирусе на сайте Минздрава




Торрент файл
скачать торрент магнет ссылка Добавлен: 26 сен 2019, 12:36
Размер: 10.11 ГБ
Сидеров: 0
Личеров: 0
Статус: (salma3)
Автор

СообщениеДобавлено: 26 сен 2019, 12:36 

Не в сети
Супермодератор
Аватара пользователя
Дата регистрации:
15 фев 2012, 16:44
Возраст: 31
Спасибо: 8272 / 2148
Сообщения: 96455
Год выхода: 2000
Жанр: комедия, пародия
Режиссер: Кинен Айвори Уайанс

В ролях: Анна Фэрис, Реджина Холл, Марлон Уайанс, Джон Абрахамс, Шеннон Элизабет, Кармен Электра, Дейв Шеридан, Фрэнк Б. Мур

О фильме:
В каждом уважающем себя фильме ужасов есть телефон, который вот-вот зазвонит; жертва, которая вот-вот завопит; убийца, который вот-вот нанесет смертельный удар. И единственный способ остаться в живых — это твердо помнить, что надо всегда опережать убийцу на один шаг… Когда сексуальная репортерша, вечно сующая свой нос, на пару с попадающим во всякие дурацкие истории охранником из супермаркета пытается остановить убийцу, задумавшего расправиться с самыми видными учениками средней школы Булемия-Фоллз, начинается такое… ну очень страшное кино.



Страна: США
Продолжительность: 01:28:29
Перевод: Профессиональный (дублированный), Профессиональный (многоголосый, закадровый), Профессиональный (двухголосый, закадровый), Профессиональный (одноголосый, закадровый)

Файл
Качество: WEB-DL 1080p | Open Matte
Формат: MKV
Видео: 1920x1080, 23.976 fps, MPEG-4 AVC, 13.9 Mb/s
Аудио 1: Russian: 48 kHz, AC3, 6 ch, ~384 kbps avg - DUB
Аудио 2: Russian: 48 kHz, AC3, 2 ch, ~192 kbps avg - MVO R5
Аудио 3: Russian: 48 kHz, AC3, 2 ch, ~224 kbps avg - DVO НТВ+
Аудио 4: Russian: 48 kHz, AC3, 2 ch, ~192 kbps avg - VO Кураж Бамбей
Аудио 5: English: 48 kHz, DTS, 6 ch, ~1509 kbps avg
Субтитры: Русские (full), английские

General
Unique ID : 170959565487032760227450673952607316627 (0x809D9D5961733529AF5954F3875A2A93)
Complete name : F:Scary.Movie.2000.Open.Matte.1080p.WEB-DL.mkv
Format : Matroska
Format version : Version 4
File size : 10.1 GiB
Duration : 1 h 28 min
Overall bit rate mode : Variable
Overall bit rate : 16.4 Mb/s
Encoded date : UTC 2019-09-20 15:15:28
Writing application : mkvmerge v8.3.0 ('Over the Horizon') 32bit
Writing library : libebml v1.3.1 + libmatroska v1.4.2

Video
ID : 1
Format : AVC
Format/Info : Advanced Video Codec
Format profile : High@L4
Format settings : CABAC / 4 Ref Frames
Format settings, CABAC : Yes
Format settings, Reference : 4 frames
Codec ID : V_MPEG4/ISO/AVC
Duration : 1 h 28 min
Bit rate : 13.9 Mb/s
Maximum bit rate : 15.0 Mb/s
Width : 1 920 pixels
Height : 1 080 pixels
Display aspect ratio : 16:9
Frame rate mode : Constant
Frame rate : 23.976 (24000/1001) FPS
Color space : YUV
Chroma subsampling : 4:2:0
Bit depth : 8 bits
Scan type : Progressive
Bits/(Pixel*Frame) : 0.279
Stream size : 8.56 GiB (85%)
Writing library : x264 core 148 r2623 d5b2374
Encoding settings : cabac=1 / ref=4 / deblock=1:-1:-1 / analyse=0x3:0x133 / me=umh / subme=9 / psy=1 / psy_rd=1.00:0.15 / mixed_ref=1 / me_range=24 / chroma_me=1 / trellis=2 / 8x8dct=1 / cqm=0 / deadzone=21,11 / fast_pskip=1 / chroma_qp_offset=-3 / threads=34 / lookahead_threads=5 / sliced_threads=0 / nr=150 / decimate=1 / interlaced=0 / bluray_compat=0 / constrained_intra=0 / bframes=8 / b_pyramid=2 / b_adapt=2 / b_bias=0 / direct=3 / weightb=1 / open_gop=0 / weightp=2 / keyint=120 / keyint_min=61 / scenecut=0 / intra_refresh=0 / rc_lookahead=120 / rc=crf / mbtree=1 / crf=18.0 / qcomp=0.60 / qpmin=0 / qpmax=69 / qpstep=4 / vbv_maxrate=15000 / vbv_bufsize=31250 / crf_max=0.0 / nal_hrd=vbr / filler=0 / ip_ratio=1.40 / aq=3:1.00
Language : English
Default : Yes
Forced : No
Color range : Limited
Color primaries : BT.709
Transfer characteristics : BT.709
Matrix coefficients : BT.709

Audio #1
ID : 2
Format : AC-3
Format/Info : Audio Coding 3
Commercial name : Dolby Digital
Codec ID : A_AC3
Duration : 1 h 28 min
Bit rate mode : Constant
Bit rate : 384 kb/s
Channel(s) : 6 channels
Channel layout : L R C LFE Ls Rs
Sampling rate : 48.0 kHz
Frame rate : 31.250 FPS (1536 SPF)
Bit depth : 16 bits
Compression mode : Lossy
Stream size : 243 MiB (2%)
Title : DUB
Language : Russian
Service kind : Complete Main
Default : Yes
Forced : No

Audio #2
ID : 3
Format : AC-3
Format/Info : Audio Coding 3
Commercial name : Dolby Digital
Codec ID : A_AC3
Duration : 1 h 28 min
Bit rate mode : Constant
Bit rate : 192 kb/s
Channel(s) : 2 channels
Channel layout : L R
Sampling rate : 48.0 kHz
Frame rate : 31.250 FPS (1536 SPF)
Bit depth : 16 bits
Compression mode : Lossy
Stream size : 122 MiB (1%)
Title : MVO R5
Language : Russian
Service kind : Complete Main
Default : No
Forced : No

Audio #3
ID : 4
Format : AC-3
Format/Info : Audio Coding 3
Commercial name : Dolby Digital
Codec ID : A_AC3
Duration : 1 h 28 min
Bit rate mode : Constant
Bit rate : 224 kb/s
Channel(s) : 2 channels
Channel layout : L R
Sampling rate : 48.0 kHz
Frame rate : 31.250 FPS (1536 SPF)
Bit depth : 16 bits
Compression mode : Lossy
Stream size : 142 MiB (1%)
Title : DVO НТВ+
Language : Russian
Service kind : Complete Main
Default : No
Forced : No

Audio #4
ID : 5
Format : AC-3
Format/Info : Audio Coding 3
Commercial name : Dolby Digital
Codec ID : A_AC3
Duration : 1 h 28 min
Bit rate mode : Constant
Bit rate : 192 kb/s
Channel(s) : 2 channels
Channel layout : L R
Sampling rate : 48.0 kHz
Frame rate : 31.250 FPS (1536 SPF)
Bit depth : 16 bits
Compression mode : Lossy
Stream size : 121 MiB (1%)
Title : VO Кураж Бамбей
Language : Russian
Service kind : Complete Main
Default : No
Forced : No

Audio #5
ID : 6
Format : DTS
Format/Info : Digital Theater Systems
Codec ID : A_DTS
Duration : 1 h 28 min
Bit rate mode : Constant
Bit rate : 1 509 kb/s
Channel(s) : 6 channels
Channel layout : C L R Ls Rs LFE
Sampling rate : 48.0 kHz
Frame rate : 93.750 FPS (512 SPF)
Bit depth : 24 bits
Compression mode : Lossy
Stream size : 955 MiB (9%)
Language : English
Default : No
Forced : No

Text #1
ID : 7
Format : UTF-8
Codec ID : S_TEXT/UTF8
Codec ID/Info : UTF-8 Plain Text
Duration : 1 h 27 min
Bit rate : 98 b/s
Count of elements : 863
Stream size : 63.4 KiB (0%)
Language : Russian
Default : No
Forced : No

Text #2
ID : 8
Format : UTF-8
Codec ID : S_TEXT/UTF8
Codec ID/Info : UTF-8 Plain Text
Duration : 1 h 28 min
Bit rate : 74 b/s
Count of elements : 1268
Stream size : 48.3 KiB (0%)
Language : English
Default : No
Forced : No



_________________
Проголосуй за трекер Открытый торрент трекер - RUS-MEDIA.ORG

Проголосуй Открытый торрент трекер - RUS-MEDIA.ORG


Скачать книги и аудио книги через торрент


Вернуться к началу
 Профиль Отправить личное сообщение  
 
   Похожие торренты   Автор   Торрент   Размер 
В этой теме нет новых непрочитанных сообщений. Ангелы Чарли / Charlie's Angels [боевик, триллер, комедия, криминал, 2000] WEB-DL 1080p, Dub [Open Matte]

salma3

35 | 24

9.9 ГБ

В этой теме нет новых непрочитанных сообщений. Бар «Гадкий койот» / Coyote Ugly [драма, мелодрама, комедия, 2000] WEB-DL 1080p, Dub [Theatrical Cut] [Open Matte]

salma3

2 | 18

9.95 ГБ

В этой теме нет новых непрочитанных сообщений. Радиоволна / Frequency [триллер, фантастика, драма, 2000] WEB-DL 1080p, Dub [Open Matte]

salma3

0 | 0

19.43 ГБ

В этой теме нет новых непрочитанных сообщений. Убрать Картера / Get Carter [Боевик, триллер, драма, 2000] WEB-DL 1080p, Dub [Open Matte]

salma3

0 | 0

11.22 ГБ

В этой теме нет новых непрочитанных сообщений. Патриот / The Patriot [боевик, военный, история, 2000] WEB-DL 1080p, Dub [Theatrical Cut] [Open Matte]

salma3

0 | 0

15.11 ГБ

В этой теме нет новых непрочитанных сообщений. Доказательство жизни / Proof of Life [боевик, триллер, драма, 2000] WEB-DL 1080p, Dub [Open Matte]

salma3

10 | 7

11.63 ГБ

В этой теме нет новых непрочитанных сообщений. Чёрная дыра / Pitch Black [ужасы, фантастика, 2000] WEB-DL 1080p, Dub [Theatrical Cut] [Open Matte]

salma3

10 | 5

13.59 ГБ


Начать новую тему Ответить на тему  [ 1 сообщение ] 




Для Мосгорсуда, Роскомнадзора и рекламодателей:: rstracker[собака]yandex.ru
cron