COVID-19 - Последняя информация о коронавирусе на сайте Минздрава




Торрент файл
скачать торрент магнет ссылка Добавлен: 13 сен 2019, 14:28
Размер: 4.56 ГБ
Сидеров: 0
Личеров: 0
Статус: (salma3)
Автор

СообщениеДобавлено: 13 сен 2019, 14:28 

Не в сети
Супермодератор
Аватара пользователя
Дата регистрации:
15 фев 2012, 16:44
Возраст: 31
Спасибо: 8280 / 2148
Сообщения: 96711
Год выхода: 1997
Жанр: Фантастика, Боевик, Приключения
Режиссер: Стив Ванг

В ролях: Марк Дакаскос, Кадим Хардисон, Джон Пайпер-Фергюсон, Бриттани Мерфи, Трейси Уолтер, Джеймс Шигета, Масая Като, Дом Магуили, Рон Юань, Клайв Розенгрен


О фильме:
Сан-Франциско. Недалекое будущее. Грузовое судно возвращается из Гонконга с загадочным пассажиром по имени Тоби Уонг. Он сбежал от подпольной корпорации Леунга в поисках свободы на Западе. Однако Тоби попадает в лапы банды хладнокровного Вика Мэдисона. Вырвавшись из банды Мэдисона, он берет в заложники пьяницу Малика Броунди и едет в Лос-Анджелес. В дороге они становятся приятелями, и Тоби даже обучает Малика боевым искусствам. Однажды Малик узнает, что у Тоби имплантирован биомодуль, дающий ему силу и скорость. Это сделал мистер Лау, глава корпорации Леунг, который хочет вернуть беглеца во что бы то ни стало. Сбежавшую парочку преследует и банда Вика Мэдисона и новая жертва мистера Лау с более совершенным биомодулем…



Производство: США / Overseas FilmGroup, NEO Motion Pictures
Продолжительность: 01:39:46
Перевод: Многоголосый профессиональный (ОРТ)

Файл
Кодек: AVC/H.264
Качество: WEB-DL 1080p
Видео: 1920x1080 (16:9), ~6 001 Kbps, 23.976 fps
Аудио 1: AC3, 2 ch, 48.0 KHz, 192 kbps | Русский
Аудио 2: E-AC3, 2 ch, 48.0 KHz, 224 kbps | Английский
Субтитры: Английские (SDH)
Время раздачи: 24/7 (Мультитрекер)
Семпл

Код:
General
Unique ID                                : 227146979889802375498592727915087916081 (0xAAE2EAC2C910FCD7B633E2E5822DEC31)
Complete name                            : E:Мои рипыDrive.1997.1080p.AMZN.WEB-DL.DDP2.0.H.264-ETHiCS.mkv
Format                                   : Matroska
Format version                           : Version 4 / Version 2
File size                                : 4.56 GiB
Duration                                 : 1h 39mn
Overall bit rate                         : 6 548 Kbps
Encoded date                             : UTC 2019-09-12 17:08:41
Writing application                      : mkvmerge v6.8.0 ('Theme for Great Cities') 64bit built on Mar  2 2014 21:34:26
Writing library                          : libebml v1.3.0 + libmatroska v1.4.1
Video
ID                                       : 1
Format                                   : AVC
Format/Info                              : Advanced Video Codec
Format profile                           : High@L4.0
Format settings, CABAC                   : Yes
Format settings, ReFrames                : 4 frames
Codec ID                                 : V_MPEG4/ISO/AVC
Duration                                 : 1h 39mn
Bit rate                                 : 6 001 Kbps
Width                                    : 1 920 pixels
Height                                   : 1 080 pixels
Display aspect ratio                     : 16:9
Frame rate mode                          : Constant
Frame rate                               : 23.976 fps
Color space                              : YUV
Chroma subsampling                       : 4:2:0
Bit depth                                : 8 bits
Scan type                                : Progressive
Bits/(Pixel*Frame)                       : 0.121
Stream size                              : 4.18 GiB (92%)
Language                                 : English
Default                                  : Yes
Forced                                   : No
Color primaries                          : BT.709
Transfer characteristics                 : BT.709
Matrix coefficients                      : BT.709
Audio #1
ID                                       : 2
Format                                   : AC-3
Format/Info                              : Audio Coding 3
Mode extension                           : CM (complete main)
Format settings, Endianness              : Big
Codec ID                                 : A_AC3
Duration                                 : 1h 39mn
Bit rate mode                            : Constant
Bit rate                                 : 192 Kbps
Channel(s)                               : 2 channels
Channel positions                        : Front: L R
Sampling rate                            : 48.0 KHz
Bit depth                                : 16 bits
Compression mode                         : Lossy
Delay relative to video                  : 8s 850ms
Stream size                              : 137 MiB (3%)
Title                                    : ОРТ
Language                                 : Russian
Default                                  : Yes
Forced                                   : No
Audio #2
ID                                       : 3
Format                                   : E-AC-3
Format/Info                              : Audio Coding 3
Format settings, Endianness              : Big
Codec ID                                 : A_EAC3
Duration                                 : 1h 39mn
Bit rate mode                            : Constant
Bit rate                                 : 224 Kbps
Channel(s)                               : 2 channels
Channel positions                        : Front: L R
Sampling rate                            : 48.0 KHz
Compression mode                         : Lossy
Stream size                              : 160 MiB (3%)
Title                                    : English
Language                                 : English
Default                                  : No
Forced                                   : No
Text
ID                                       : 4
Format                                   : UTF-8
Codec ID                                 : S_TEXT/UTF8
Codec ID/Info                            : UTF-8 Plain Text
Title                                    : English [SDH]
Language                                 : English
Default                                  : No
Forced                                   : No
 


Релиз от: R.G. Goldenshara


_________________
Проголосуй за трекер Открытый торрент трекер - RUS-MEDIA.ORG

Проголосуй Открытый торрент трекер - RUS-MEDIA.ORG


Скачать книги и аудио книги через торрент


Вернуться к началу
 Профиль Отправить личное сообщение  
 
   Похожие торренты   Автор   Торрент   Размер 
В этой теме нет новых непрочитанных сообщений. Кинг Конг / King Kong [боевик, драма, приключения, 2005] WEB-DL 1080p, Dub [Театральная версия] [Open Matte]

salma3

2 | 14

18.72 ГБ

В этой теме нет новых непрочитанных сообщений. Рассвет мертвецов / Dawn of the Dead [Ужасы, фантастика, боевик, 2004] WEB-DL 1080p, Dub [Театральная версия] [Open Matte]

salma3

0 | 0

10.39 ГБ

В этой теме нет новых непрочитанных сообщений. Хранители / Watchmen [фантастика, триллер, драма, 2009] WEB-DL 1080p, Dub [Театральная версия] [Open Matte]

salma3

0 | 8

19.54 ГБ

В этой теме нет новых непрочитанных сообщений. Хранители / Watchmen [фантастика, триллер, драма, 2009] WEB-DLRip 720p, Dub [Театральная версия] [Open Matte]

salma3

0 | 0

4.65 ГБ

В этой теме нет новых непрочитанных сообщений. Другой мир / Underworld [фантастика, боевик, 2003] BDRip-AVC, Dub [Театральная версия] [Open Matte]

salma3

0 | 0

1.8 ГБ

В этой теме нет новых непрочитанных сообщений. Американский пирог 3: Свадьба / American Wedding [мелодрама, комедия, 2003] WEB-DL 1080p, Dub [Open Matte] [Театральная версия]

salma3

0 | 0

10.04 ГБ

В этой теме нет новых непрочитанных сообщений. Макс Пэйн / Max Payne [Боевик, триллер, драма, 2008] WEB-DLRip-AVC, Dub [Театральная версия] [Open Matte]

salma3

0 | 0

2.18 ГБ


Начать новую тему Ответить на тему  [ 1 сообщение ] 




Для Мосгорсуда, Роскомнадзора и рекламодателей:: rstracker[собака]yandex.ru
cron