Торрент файл
скачать торрент магнет ссылка Добавлен: 12 сен 2019, 11:01
Размер: 4.75 ГБ
Сидеров: 18
Личеров: 1
Статус: (salma3)
Автор

СообщениеДобавлено: 12 сен 2019, 11:01 

Не в сети
Супермодератор
Аватара пользователя
Дата регистрации:
15 фев 2012, 16:44
Возраст: 32
Спасибо: 8325 / 2148
Сообщения: 97229
Год выхода: 2019
Жанр: Ужасы
Режиссер: Ларс Клевберг

В ролях: Гэбриел Бейтман, Обри Плаза, Марк Хэмилл, Брайан Тайри Генри, Тим Мэтисон, Дэвид Льюис, Ти Консильо, Марлон Казади, Беатрис Китсос, Ханна Дрю, Трент Редекоп, Эмбер Тейлор, Карлис Бёрк, Николь Энтони, Джонсон Фэн, Кристин Йорк, Миа Белла, Амро Майзуб, Вину Сандху, Оливия Пун, Кеннет Тайнен

О фильме:
Мать-одиночка Карен дарит своему сыну Энди куклу, о которой мечтают все дети. Однако, вскоре становится ясно, что Энди достается больше, чем просто игрушка…



Страна: Франция, Канада, США
Продолжительность: 01:29:59
Перевод: Дублированный [iTunes]

Качество: WEB-DL 1080p
Видео: MPEG-4 AVC, 1920x816, 6536 Kbit/s, 23.976 fps
Аудио #01: 48 kHz, AC3, 5.1, 384 Kbps | iTunes | RUS
Аудио #02: 48 kHz, E-AC3, 5.1, 640 Kbps | Оригинал | ENG
Субтитры: Английские


General
Unique ID : 67442719926631532171309175344337145417 (0x32BCFED178615B417C7691EEA7D24E49)
Complete name : D:Video111Childs.Play.2019.AMZN.WEB-DL.1080p.seleZen.mkv
Format : Matroska
Format version : Version 4
File size : 4.75 GiB
Duration : 1 h 29 min
Overall bit rate : 7 562 kb/s
Movie name : Childs Play 2019 from селезень
Encoded date : UTC 2019-09-11 20:37:53
Writing application : mkvmerge v22.0.0 ('At The End Of The World') 64-bit
Writing library : libebml v1.3.5 + libmatroska v1.4.8
Video
ID : 1
Format : AVC
Format/Info : Advanced Video Codec
Format profile : High@L4
Format settings : CABAC / 4 Ref Frames
Format settings, CABAC : Yes
Format settings, Reference : 4 frames
Codec ID : V_MPEG4/ISO/AVC
Duration : 1 h 29 min
Bit rate mode : Constant
Bit rate : 6 536 kb/s
Nominal bit rate : 10 000 kb/s
Width : 1 920 pixels
Height : 816 pixels
Display aspect ratio : 2.35:1
Frame rate mode : Constant
Frame rate : 23.976 (24000/1001) FPS
Color space : YUV
Chroma subsampling : 4:2:0
Bit depth : 8 bits
Scan type : Progressive
Bits/(Pixel*Frame) : 0.174
Stream size : 4.11 GiB (86%)
Language : English
Default : Yes
Forced : No
Color range : Limited
Color primaries : BT.709
Transfer characteristics : BT.709
Matrix coefficients : BT.709
Audio #1
ID : 2
Format : AC-3
Format/Info : Audio Coding 3
Commercial name : Dolby Digital
Codec ID : A_AC3
Duration : 1 h 29 min
Bit rate mode : Constant
Bit rate : 384 kb/s
Channel(s) : 6 channels
Channel layout : L R C LFE Ls Rs
Sampling rate : 48.0 kHz
Frame rate : 31.250 FPS (1536 SPF)
Bit depth : 16 bits
Compression mode : Lossy
Stream size : 247 MiB (5%)
Title : iTunes
Language : Russian
Service kind : Complete Main
Default : Yes
Forced : Yes
Audio #2
ID : 3
Format : E-AC-3
Format/Info : Enhanced AC-3
Commercial name : Dolby Digital Plus
Codec ID : A_EAC3
Duration : 1 h 29 min
Bit rate mode : Constant
Bit rate : 640 kb/s
Channel(s) : 6 channels
Channel layout : L R C LFE Ls Rs
Sampling rate : 48.0 kHz
Frame rate : 31.250 FPS (1536 SPF)
Compression mode : Lossy
Stream size : 412 MiB (8%)
Title : Original
Language : English
Service kind : Complete Main
Default : No
Forced : No
Text #1
ID : 4
Format : UTF-8
Codec ID : S_TEXT/UTF8
Codec ID/Info : UTF-8 Plain Text
Duration : 1 h 23 min
Bit rate : 53 b/s
Count of elements : 1225
Stream size : 32.3 KiB (0%)
Title : Full
Language : English
Default : No
Forced : No
Text #2
ID : 5
Format : UTF-8
Codec ID : S_TEXT/UTF8
Codec ID/Info : UTF-8 Plain Text
Duration : 1 h 29 min
Bit rate : 59 b/s
Count of elements : 1551
Stream size : 39.1 KiB (0%)
Title : SDH
Language : English
Default : No
Forced : No

Релиз от:


_________________
Проголосуй за трекер Открытый торрент трекер - RUS-MEDIA.ORG

Проголосуй Открытый торрент трекер - RUS-MEDIA.ORG


Вернуться к началу
 Профиль Отправить личное сообщение  
 
   Похожие торренты   Автор   Торрент   Размер 
В этой теме нет новых непрочитанных сообщений. Детские игры / Child's Play [Ужасы, 2019] WEB-DL 1080p, Dub [iTunes]

salma3

0 | 0

8.46 ГБ

В этой теме нет новых непрочитанных сообщений. Детские игры / Child's Play [Ужасы, 2019] WEB-DLRip, Dub [iTunes]

salma3

0 | 0

696.88 МБ

В этой теме нет новых непрочитанных сообщений. Детские игры / Child's Play [Ужасы, 2019] WEB-DLRip, Dub [iTunes]

salma3

0 | 0

1.46 ГБ

В этой теме нет новых непрочитанных сообщений. Детские игры / Child's Play [Ужасы, 2019] WEB-DLRip-AVC, Dub [iTunes]

salma3

38 | 21

1.47 ГБ

В этой теме нет новых непрочитанных сообщений. Детские игры / Child's Play [Ужасы, 2019] WEB-DLRip-AVC, Dub [iTunes]

salma3

4 | 2

1.7 ГБ

В этой теме нет новых непрочитанных сообщений. Детские игры / Child's Play [Ужасы, 2019] BDRip 720p, Dub [iTunes]

salma3

1 | 43

3.35 ГБ

В этой теме нет новых непрочитанных сообщений. Ма / Ma [Ужасы, триллер, 2019] WEB-DL 1080p, Dub [iTunes]

salma3

1 | 0

3.66 ГБ


Начать новую тему Ответить на тему  [ 1 сообщение ] 




Для Мосгорсуда, Роскомнадзора и рекламодателей:: rstracker[собака]yandex.ru
cron
cron