Торрент файл
скачать торрент магнет ссылка Добавлен: 11 сен 2019, 13:45
Размер: 13.21 ГБ
Сидеров: 1
Личеров: 0
Статус: (salma3)
Автор

СообщениеДобавлено: 11 сен 2019, 13:45 

Не в сети
Супермодератор
Аватара пользователя
Дата регистрации:
15 фев 2012, 16:44
Возраст: 30
Спасибо: 8093 / 2147
Сообщения: 92248
Год выпуска: 1989
Жанр: Боевик, триллер, мелодрама
Режиссер: Роуди Херрингтон

В ролях: Патрик Суэйзи, Келли Линч, Сэм Эллиотт, Бен Газзара, Маршалл Р. Тиг, Джули Майклс, Ред Уэст, Саншайн Паркер, Джефф Хили

О фильме: Далтон — легендарный вышибала, который прибывает в Джаспер, штат Миссури с определенной целью: восстановить порядок в небезопасном баре Двойная порция. По мере того, как он избавляет бар от головорезов, хулиганов и наемных убийц, крепчает гнев их работодателя — печально известного рэкетира Брэда Уэсли. Город живет в страхе перед Уэсли, но Далтона это не смущает...



Выпущено: США
Продолжительность: 01:54:04
Перевод: Профессиональный многоголосый, профессиональный двухголосый, авторский, любительский

Файл
Качество: BDRip 1080p
Видео: MPEG-4 AVC, 12,6 Мбит/сек, 1920x818, 23,976 кадра/сек
Аудио #01: AC3, 6 ch, 448 Кбит/сек | Русский, профессиональный (многоголосый закадровый) СТС
Аудио #02: AC3, 2 ch, 192 Кбит/сек | Русский, профессиональный (двухголосый закадровый) НТВ, Лазер Видео
Аудио #03: AC3, 2 ch, 192 Кбит/сек | Русский, профессиональный (двухголосый закадровый) ОРТ
Аудио #04: AC3, 2 ch, 192 Кбит/сек | Русский, профессиональный (двухголосый закадровый) SDI Media
Аудио #05: AC3, 2 ch, 192 Кбит/сек | Русский, профессиональный (двухголосый закадровый) Союз Совенчер
Аудио #06: AC3, 6 ch, 640 Кбит/сек | Русский, авторский (одноголосый закадровый) Андрей Гаврилов
Аудио #07: AC3, 6 ch, 448 Кбит/сек | Русский, авторский (одноголосый закадровый) Михаил Яроцкий, ненормативная лексика
Аудио #08: AC3, 2 ch, 192 Кбит/сек | Русский, авторский (одноголосый закадровый) Вартан Дохалов
Аудио #09: AC3, 2 ch, 192 Кбит/сек | Русский, авторский (одноголосый закадровый) Леонид Володарский
Аудио #10: AC3, 2 ch, 256 Кбит/сек | Русский, авторский (одноголосый закадровый) Виктор Махонько
Аудио #11: AC3, 2 ch, 192 Кбит/сек | Русский, любительский (одноголосый закадровый) Дама
Аудио #12: AC3, 2 ch, 192 Кбит/сек | Украинский, профессиональный (многоголосый закадровый) ICTV
Аудио #13: AC3, 6 ch, 640 Кбит/сек | Английский, оригинал
Субтитры: Русские, английские
Навигация по главам: Есть


x264 [info]: frame I:935 Avg QP:17.96 size:221184
x264 [info]: frame P:33339 Avg QP:20.47 size:104505
x264 [info]: frame B:129810 Avg QP:22.21 size: 54684
-----------------------------------------------------
Общее
Уникальный идентификатор : 185656881811581088297987760062331490054 (0x8BAC36FD8AD4B4FC842044946D9A0F06)
Полное имя : Придорожная.закусочная.1989.REMASTERED.BDRip.1080p.KORSAR.mkv
Формат : Matroska
Версия формата : Version 2
Размер файла : 13,2 Гбайт
Продолжительность : 1 ч. 54 м.
Общий поток : 16,6 Мбит/сек
Дата кодирования : UTC 2018-09-25 20:16:06
Программа кодирования : mkvmerge v5.8.0 ('No Sleep / Pillow') built on Sep 2 2012 15:37:04
Библиотека кодирования : libebml v1.2.3 + libmatroska v1.3.0
Видео
Идентификатор : 1
Формат : AVC
Формат/Информация : Advanced Video Codec
Профиль формата : High@L4.1
Настройки формата : CABAC / 5 Ref Frames
Параметр CABAC формата : Да
Параметр RefFrames формата : 5 кадров
Идентификатор кодека : V_MPEG4/ISO/AVC
Продолжительность : 1 ч. 54 м.
Битрейт : 12,6 Мбит/сек
Ширина : 1920 пикселей
Высота : 818 пикселей
Соотношение сторон : 2,35:1
Режим частоты кадров : Постоянный
Частота кадров : 23,976 (24000/1001) кадра/сек
Цветовое пространство : YUV
Субдискретизация насыщенности : 4:2:0
Битовая глубина : 8 бит
Тип развёртки : Прогрессивная
Бит/(Пиксели*Кадры) : 0.335
Размер потока : 9,79 Гбайт (74%)
Заголовок : RIP | MZMA
Библиотека кодирования : x264 core 152 r2851kMod ba24899
Настройки программы : cabac=1 / ref=5 / deblock=1:-2:-2 / analyse=0x3:0x113 / me=umh / subme=11 / psy=1 / fade_compensate=0.00 / psy_rd=1.00:0.00 / mixed_ref=1 / me_range=48 / chroma_me=1 / trellis=2 / 8x8dct=1 / cqm=0 / deadzone=21,11 / fast_pskip=0 / chroma_qp_offset=-2 / threads=6 / lookahead_threads=1 / sliced_threads=0 / nr=0 / decimate=0 / interlaced=0 / bluray_compat=0 / constrained_intra=0 / bframes=16 / b_pyramid=2 / b_adapt=2 / b_bias=0 / direct=3 / weightb=1 / open_gop=0 / weightp=2 / keyint=240 / keyint_min=23 / scenecut=40 / intra_refresh=0 / rc_lookahead=40 / rc=2pass / mbtree=0 / bitrate=12613 / ratetol=1.0 / qcomp=0.60 / qpmin=0 / qpmax=69 / qpstep=4 / cplxblur=20.0 / qblur=0.5 / vbv_maxrate=50000 / vbv_bufsize=62500 / nal_hrd=none / filler=0 / ip_ratio=1.40 / pb_ratio=1.30 / aq=1:1.00
Язык : English
По умолчанию : Да
Принудительно : Нет
Цветовой диапазон : Limited
Основные цвета : BT.709
Характеристики трансфера : BT.709
Коэффициенты матрицы : BT.709
Аудио #1
Идентификатор : 2
Формат : AC-3
Формат/Информация : Audio Coding 3
Идентификатор кодека : A_AC3
Продолжительность : 1 ч. 54 м.
Вид битрейта : Постоянный
Битрейт : 448 Кбит/сек
Каналы : 6 каналов
Расположение каналов : Front: L C R, Side: L R, LFE
Частота : 48,0 КГц
Частота кадров : 31,250 кадров/сек (1536 SPF)
Битовая глубина : 16 бит
Метод сжатия : С потерями
Размер потока : 366 Мбайт (3%)
Заголовок : MVO | СТС
Язык : Russian
По умолчанию : Да
Принудительно : Нет
Аудио #2
Идентификатор : 3
Формат : AC-3
Формат/Информация : Audio Coding 3
Идентификатор кодека : A_AC3
Продолжительность : 1 ч. 54 м.
Вид битрейта : Постоянный
Битрейт : 192 Кбит/сек
Каналы : 2 канала
Расположение каналов : Front: L R
Частота : 48,0 КГц
Частота кадров : 31,250 кадров/сек (1536 SPF)
Битовая глубина : 16 бит
Метод сжатия : С потерями
Размер потока : 157 Мбайт (1%)
Заголовок : DVO | НТВ
Язык : Russian
По умолчанию : Нет
Принудительно : Нет
Аудио #3
Идентификатор : 4
Формат : AC-3
Формат/Информация : Audio Coding 3
Идентификатор кодека : A_AC3
Продолжительность : 1 ч. 54 м.
Вид битрейта : Постоянный
Битрейт : 192 Кбит/сек
Каналы : 2 канала
Расположение каналов : Front: L R
Частота : 48,0 КГц
Частота кадров : 31,250 кадров/сек (1536 SPF)
Битовая глубина : 16 бит
Метод сжатия : С потерями
Размер потока : 157 Мбайт (1%)
Заголовок : DVO | ОРТ
Язык : Russian
По умолчанию : Нет
Принудительно : Нет
Аудио #4
Идентификатор : 5
Формат : AC-3
Формат/Информация : Audio Coding 3
Идентификатор кодека : A_AC3
Продолжительность : 1 ч. 54 м.
Вид битрейта : Постоянный
Битрейт : 192 Кбит/сек
Каналы : 2 канала
Расположение каналов : Front: L R
Частота : 48,0 КГц
Частота кадров : 31,250 кадров/сек (1536 SPF)
Битовая глубина : 16 бит
Метод сжатия : С потерями
Размер потока : 157 Мбайт (1%)
Заголовок : DVO | SDI Media
Язык : Russian
По умолчанию : Нет
Принудительно : Нет
Аудио #5
Идентификатор : 6
Формат : AC-3
Формат/Информация : Audio Coding 3
Идентификатор кодека : A_AC3
Продолжительность : 1 ч. 54 м.
Вид битрейта : Постоянный
Битрейт : 192 Кбит/сек
Каналы : 2 канала
Расположение каналов : Front: L R
Частота : 48,0 КГц
Частота кадров : 31,250 кадров/сек (1536 SPF)
Битовая глубина : 16 бит
Метод сжатия : С потерями
Размер потока : 157 Мбайт (1%)
Заголовок : DVO | Союз Совенчер
Язык : Russian
По умолчанию : Нет
Принудительно : Нет
Аудио #6
Идентификатор : 7
Формат : AC-3
Формат/Информация : Audio Coding 3
Идентификатор кодека : A_AC3
Продолжительность : 1 ч. 54 м.
Вид битрейта : Постоянный
Битрейт : 640 Кбит/сек
Каналы : 6 каналов
Расположение каналов : Front: L C R, Side: L R, LFE
Частота : 48,0 КГц
Частота кадров : 31,250 кадров/сек (1536 SPF)
Битовая глубина : 16 бит
Метод сжатия : С потерями
Размер потока : 522 Мбайт (4%)
Заголовок : AVO | А. Гаврилов
Язык : Russian
По умолчанию : Нет
Принудительно : Нет
Аудио #7
Идентификатор : 8
Формат : AC-3
Формат/Информация : Audio Coding 3
Идентификатор кодека : A_AC3
Продолжительность : 1 ч. 54 м.
Вид битрейта : Постоянный
Битрейт : 448 Кбит/сек
Каналы : 6 каналов
Расположение каналов : Front: L C R, Side: L R, LFE
Частота : 48,0 КГц
Частота кадров : 31,250 кадров/сек (1536 SPF)
Битовая глубина : 16 бит
Метод сжатия : С потерями
Размер потока : 366 Мбайт (3%)
Заголовок : AVO | М. Яроцкий
Язык : Russian
По умолчанию : Нет
Принудительно : Нет
Аудио #8
Идентификатор : 9
Формат : AC-3
Формат/Информация : Audio Coding 3
Идентификатор кодека : A_AC3
Продолжительность : 1 ч. 54 м.
Вид битрейта : Постоянный
Битрейт : 192 Кбит/сек
Каналы : 2 канала
Расположение каналов : Front: L R
Частота : 48,0 КГц
Частота кадров : 31,250 кадров/сек (1536 SPF)
Битовая глубина : 16 бит
Метод сжатия : С потерями
Размер потока : 157 Мбайт (1%)
Заголовок : AVO | В. Дохалов
Язык : Russian
По умолчанию : Нет
Принудительно : Нет
Аудио #9
Идентификатор : 10
Формат : AC-3
Формат/Информация : Audio Coding 3
Идентификатор кодека : A_AC3
Продолжительность : 1 ч. 54 м.
Вид битрейта : Постоянный
Битрейт : 192 Кбит/сек
Каналы : 2 канала
Расположение каналов : Front: L R
Частота : 48,0 КГц
Частота кадров : 31,250 кадров/сек (1536 SPF)
Битовая глубина : 16 бит
Метод сжатия : С потерями
Размер потока : 157 Мбайт (1%)
Заголовок : AVO | В. Володарский
Язык : Russian
По умолчанию : Нет
Принудительно : Нет
Аудио #10
Идентификатор : 11
Формат : AC-3
Формат/Информация : Audio Coding 3
Идентификатор кодека : A_AC3
Продолжительность : 1 ч. 54 м.
Вид битрейта : Постоянный
Битрейт : 256 Кбит/сек
Каналы : 2 канала
Расположение каналов : Front: L R
Частота : 48,0 КГц
Частота кадров : 31,250 кадров/сек (1536 SPF)
Битовая глубина : 16 бит
Метод сжатия : С потерями
Размер потока : 209 Мбайт (2%)
Заголовок : AVO | В. Махонько
Язык : Russian
По умолчанию : Нет
Принудительно : Нет
Аудио #11
Идентификатор : 12
Формат : AC-3
Формат/Информация : Audio Coding 3
Идентификатор кодека : A_AC3
Продолжительность : 1 ч. 54 м.
Вид битрейта : Постоянный
Битрейт : 192 Кбит/сек
Каналы : 2 канала
Расположение каналов : Front: L R
Частота : 48,0 КГц
Частота кадров : 31,250 кадров/сек (1536 SPF)
Битовая глубина : 16 бит
Метод сжатия : С потерями
Размер потока : 157 Мбайт (1%)
Заголовок : VO | Дама
Язык : Russian
По умолчанию : Нет
Принудительно : Нет
Аудио #12
Идентификатор : 13
Формат : AC-3
Формат/Информация : Audio Coding 3
Идентификатор кодека : A_AC3
Продолжительность : 1 ч. 54 м.
Вид битрейта : Постоянный
Битрейт : 192 Кбит/сек
Каналы : 2 канала
Расположение каналов : Front: L R
Частота : 48,0 КГц
Частота кадров : 31,250 кадров/сек (1536 SPF)
Битовая глубина : 16 бит
Метод сжатия : С потерями
Размер потока : 157 Мбайт (1%)
Заголовок : MVO | ICTV
Язык : Ukrainian
По умолчанию : Нет
Принудительно : Нет
Аудио #13
Идентификатор : 14
Формат : AC-3
Формат/Информация : Audio Coding 3
Идентификатор кодека : A_AC3
Продолжительность : 1 ч. 54 м.
Вид битрейта : Постоянный
Битрейт : 640 Кбит/сек
Каналы : 6 каналов
Расположение каналов : Front: L C R, Side: L R, LFE
Частота : 48,0 КГц
Частота кадров : 31,250 кадров/сек (1536 SPF)
Битовая глубина : 16 бит
Метод сжатия : С потерями
Размер потока : 522 Мбайт (4%)
Заголовок : Original
Язык : English
По умолчанию : Нет
Принудительно : Нетт
Текст #1
Идентификатор : 15
Формат : UTF-8
Идентификатор кодека : S_TEXT/UTF8
Идентификатор кодека/Информация : UTF-8 Plain Text
Заголовок : С Песнями
Язык : Russian
По умолчанию : Нет
Принудительно : Нет
Текст #2
Идентификатор : 16
Формат : UTF-8
Идентификатор кодека : S_TEXT/UTF8
Идентификатор кодека/Информация : UTF-8 Plain Text
Заголовок : С Песнями, SDH
Язык : Russian
По умолчанию : Нет
Принудительно : Нет
Текст #3
Идентификатор : 17
Формат : UTF-8
Идентификатор кодека : S_TEXT/UTF8
Идентификатор кодека/Информация : UTF-8 Plain Text
Заголовок : НТВ, Полные
Язык : Russian
По умолчанию : Нет
Принудительно : Нет
Текст #4
Идентификатор : 18
Формат : UTF-8
Идентификатор кодека : S_TEXT/UTF8
Идентификатор кодека/Информация : UTF-8 Plain Text
Заголовок : Дама, на места без перевода
Язык : Russian
По умолчанию : Нет
Принудительно : Нет
Текст #5
Идентификатор : 19
Формат : UTF-8
Идентификатор кодека : S_TEXT/UTF8
Идентификатор кодека/Информация : UTF-8 Plain Text
Язык : English
По умолчанию : Нет
Принудительно : Нет
Текст #6
Идентификатор : 20
Формат : UTF-8
Идентификатор кодека : S_TEXT/UTF8
Идентификатор кодека/Информация : UTF-8 Plain Text
Заголовок : SDH
Язык : English
По умолчанию : Нет
Принудительно : Нет
Текст #7
Идентификатор : 21
Формат : UTF-8
Идентификатор кодека : S_TEXT/UTF8
Идентификатор кодека/Информация : UTF-8 Plain Text
Заголовок : SDH, With Songs
Язык : English
По умолчанию : Нет
Принудительно : Нет
Меню
00:00:00.000 : en:Opening Credits
00:04:00.275 : en:Double Deuce
00:06:13.367 : en:Welcome to Jasper
00:09:36.653 : en:Paid to Play
00:12:26.489 : en:Ten a Kiss
00:16:14.926 : en:She's a Runner
00:21:48.634 : en:3 Rules
00:25:33.150 : en:Cleaning House
00:29:36.685 : en:No Joke
00:32:13.050 : en:Hello Red
00:36:31.808 : en:Little Mistake
00:39:03.168 : en:Pain Don't Hurt
00:41:56.549 : en:Everybody Pays
00:45:51.909 : en:New Town, Same Story
00:47:36.722 : en:Sorry, We're Closed
00:50:53.002 : en:Fan Club
00:53:46.091 : en:Because of Me
00:57:35.320 : en:Running Out of Booze
00:59:31.687 : en:You Can Stay
01:06:18.051 : en:Word Is...
01:10:46.569 : en:It's a Lie
01:15:37.276 : en:Things Heat Up
01:23:34.920 : en:This is My Town
01:29:15.969 : en:Prepare to Die
01:35:38.727 : en:Coin Toss
01:40:32.478 : en:Tails Again...
01:43:54.263 : en:Trophy Room
01:49:14.708 : en:End Credits


Релиз от:


_________________
Проголосуй за трекер Открытый торрент трекер - RUS-MEDIA.ORG

Проголосуй Открытый торрент трекер - RUS-MEDIA.ORG


Книжный торрент трекер



Вернуться к началу
 Профиль Отправить личное сообщение  
 
   Похожие торренты   Автор   Торрент   Размер 
В этой теме нет новых непрочитанных сообщений. Придорожная закусочная / Road House [Боевик, триллер, мелодрама, 1989] BDRip 720p, Mvo [Remastered]

salma3

0 | 0

8.08 ГБ

В этой теме нет новых непрочитанных сообщений. Закусочная на колёсах / Wheels on Meals [Боевик, мелодрама, комедия, 1984] BDRemux 1080p, Mvo [Remastered]

salma3

0 | 0

27.66 ГБ

В этой теме нет новых непрочитанных сообщений. Закусочная на колесах / Wheels On Meals [Боевик, комедия, 1984] BDRip 1080p, Mvo [Remastered]

salma3

1 | 0

12.59 ГБ

В этой теме нет новых непрочитанных сообщений. Кровавая закусочная / Blood Diner [ужасы, комедия, 1987] BDRip 1080p, Avo [Remastered]

salma3

0 | 0

7.54 ГБ

В этой теме нет новых непрочитанных сообщений. Хищник 2 / Predator 2 [Фантастика, боевик, триллер, 1990] BDRip 1080p, Dub [REMASTERED]

salma3

0 | 0

13.56 ГБ

В этой теме нет новых непрочитанных сообщений. Схватка / Heat [боевик, триллер, драма, 1995] BDRip 1080p, Mvo [Remastered]

salma3

0 | 0

18.76 ГБ

В этой теме нет новых непрочитанных сообщений. Годзилла / Godzilla [фантастика, боевик, триллер, 1998] BDRip 1080p, Dub [4K Remastered]

salma3

0 | 0

16.73 ГБ


Начать новую тему Ответить на тему  [ 1 сообщение ] 




Для Мосгорсуда, Роскомнадзора и рекламодателей:: mosgorsud-torrent[собачка]yandex.ru
cron