Торрент файл
скачать торрент магнет ссылка Добавлен: 08 сен 2019, 11:32
Размер: 3.8 ГБ
Сидеров: 0
Личеров: 0
Статус: (salma3)
Автор

СообщениеДобавлено: 08 сен 2019, 11:32 

Не в сети
Супермодератор
Аватара пользователя
Дата регистрации:
15 фев 2012, 16:44
Возраст: 32
Спасибо: 8320 / 2148
Сообщения: 97229
Год выхода: 2007
Страна: Великобритания, Франция, Германия, США / Universal Pictures, StudioCanal, Motion Picture Alpha Produktionsgesellschaft
Жанр: Комедия, семейный
Продолжительность: 01:29:34
Перевод: Дублированный
Режиссер: Стив Бенделак
В главных ролях: Роуэн Эткинсон, Стив Пембертон, Лили Эткинсон, Престон Найман, Эмма де Кон, Арсен Моска, Стефан Дебак, Уиллем Дефо
Описание: Мистер Бин отправляется на отдых на юг Франции, оставляя за собой повсюду яркие следы своих приключений. Недотепа и бедолага, мистер Бин снимает о своих неудачах любительский видеофильм, который умудряется даже показать на большом экране Каннского фестиваля.
Качество: BDRip 1080p
Видео: HEVC/H.265, 1920х1040, ~5307 Kbps
Аудио 1: AC3, 6 ch, 384 Kbps - Дублированный
Аудио 2: AC3, 6 ch, 384 Kbps - Английский
Субтитры: Русские (форсированные)


Общее
Уникальный идентификатор : 141033734651050044347432468230184559484 (0x6A1A1BF95620BD8FFEB1921F76D6E37C)
Полное имя : F:Mr.Beans.Holiday. 2007. 1080p. HEVC. 10bit..mkv
Формат : Matroska
Версия формата : Version 4 / Version 2
Размер файла : 3,80 Гбайт
Продолжительность : 1 ч. 29 м.
Общий поток : 6077 Кбит/сек
Дата кодирования : UTC 2019-08-26 14:08:43
Программа кодирования : mkvmerge v28.2.0 ('The Awakening') 64-bit
Библиотека кодирования : libebml v1.3.6 + libmatroska v1.4.9
Обложка : Yes
Attachments : cover.jpg
Видео
Идентификатор : 1
Формат : HEVC
Формат/Информация : High Efficiency Video Coding
Профиль формата : Main 10@L4@Main
Идентификатор кодека : V_MPEGH/ISO/HEVC
Продолжительность : 1 ч. 29 м.
Битрейт : 5307 Кбит/сек
Ширина : 1920 пикселей
Высота : 1040 пикселей
Соотношение сторон : 1,85:1
Режим частоты кадров : Постоянный
Частота кадров : 23,976 (24000/1001) кадра/сек
Цветовое пространство : YUV
Субдискретизация насыщенности : 4:2:0
Битовая глубина : 10 бит
Бит/(Пиксели*Кадры) : 0.111
Размер потока : 3,32 Гбайт (87%)
Библиотека кодирования : x265 3.1+5-9c5c9cef2a86:[Windows][MSVC 1921][64 bit] 10bit
Настройки программы : cpuid=1049583 / frame-threads=3 / numa-pools=8 / wpp / no-pmode / no-pme / no-psnr / no-ssim / log-level=2 / input-csp=1 / input-res=1920x1040 / interlace=0 / total-frames=128867 / level-idc=0 / high-tier=1 / uhd-bd=0 / ref=3 / no-allow-non-conformance / no-repeat-headers / annexb / no-aud / no-hrd / info / hash=0 / no-temporal-layers / open-gop / min-keyint=23 / keyint=250 / gop-lookahead=0 / bframes=4 / b-adapt=2 / b-pyramid / bframe-bias=0 / rc-lookahead=20 / lookahead-slices=6 / scenecut=40 / radl=0 / no-splice / no-intra-refresh / ctu=64 / min-cu-size=8 / no-rect / no-amp / max-tu-size=32 / tu-inter-depth=1 / tu-intra-depth=1 / limit-tu=0 / rdoq-level=0 / dynamic-rd=0.00 / no-ssim-rd / signhide / no-tskip / nr-intra=0 / nr-inter=0 / no-constrained-intra / strong-intra-smoothing / max-merge=3 / limit-refs=1 / no-limit-modes / me=1 / subme=2 / merange=57 / temporal-mvp / weightp / no-weightb / no-analyze-src-pics / deblock=0:0 / sao / no-sao-non-deblock / rd=3 / early-skip / rskip / no-fast-intra / no-tskip-fast / no-cu-lossless / b-intra / no-splitrd-skip / rdpenalty=0 / psy-rd=2.00 / psy-rdoq=0.00 / no-rd-refine / no-lossless / cbqpoffs=0 / crqpoffs=0 / rc=crf / crf=19.0 / qcomp=0.60 / qpstep=4 / stats-write=0 / stats-read=0 / ipratio=1.40 / pbratio=1.30 / aq-mode=2 / aq-strength=1.00 / cutree / zone-count=0 / no-strict-cbr / qg-size=32 / no-rc-grain / qpmax=69 / qpmin=0 / no-const-vbv / sar=0 / overscan=0 / videoformat=5 / range=0 / colorprim=2 / transfer=2 / colormatrix=2 / chromaloc=0 / display-window=0cll=0,0 / min-luma=0 / max-luma=1023 / log2-max-poc-lsb=8 / vui-timing-info / vui-hrd-info / slices=1 / no-opt-qp-pps / no-opt-ref-list-length-pps / no-multi-pass-opt-rps / scenecut-bias=0.05 / no-opt-cu-delta-qp / no-aq-motion / no-hdr / no-hdr-opt / no-dhdr10-opt / no-idr-recovery-sei / analysis-reuse-level=5 / scale-factor=0 / refine-intra=0 / refine-inter=0 / refine-mv=0 / refine-ctu-distortion=0 / no-limit-sao / ctu-info=0 / no-lowpass-dct / refine-analysis-type=0 / copy-pic=1 / max-ausize-factor=1.0 / no-dynamic-refine / no-single-sei / no-hevc-aq / no-svt / no-field / qp-adaptation-range=1.00
Default : Да
Forced : Нет
Аудио #1
Идентификатор : 2
Формат : AC-3
Формат/Информация : Audio Coding 3
Идентификатор кодека : A_AC3
Продолжительность : 1 ч. 29 м.
Вид битрейта : Постоянный
Битрейт : 384 Кбит/сек
Каналы : 6 каналов
Расположение каналов : Front: L C R, Side: L R, LFE
Частота : 48,0 КГц
Частота кадров : 31,250 кадров/сек (1536 SPF)
Битовая глубина : 16 бит
Метод сжатия : С потерями
Размер потока : 246 Мбайт (6%)
Заголовок : rus
Язык : Russian
ServiceKind/ : Complete Main
Default : Да
Forced : Нет
Аудио #2
Идентификатор : 3
Формат : AC-3
Формат/Информация : Audio Coding 3
Идентификатор кодека : A_AC3
Продолжительность : 1 ч. 29 м.
Вид битрейта : Постоянный
Битрейт : 384 Кбит/сек
Каналы : 6 каналов
Расположение каналов : Front: L C R, Side: L R, LFE
Частота : 48,0 КГц
Частота кадров : 31,250 кадров/сек (1536 SPF)
Битовая глубина : 16 бит
Метод сжатия : С потерями
Размер потока : 246 Мбайт (6%)
Заголовок : eng
ServiceKind/ : Complete Main
Default : Нет
Forced : Нет
Текст
Идентификатор : 4
Формат : UTF-8
Идентификатор кодека : S_TEXT/UTF8
Идентификатор кодека/Информация : UTF-8 Plain Text
Продолжительность : 1 ч. 28 м.
Битрейт : 0 бит/сек
ElementCount : 21
Размер потока : 576 байт (0%)
Язык : Russian
Default : Да
Forced : Нет
Меню
00:00:00.000 : :Глава 01
00:03:32.086 : :Глава 02
00:06:19.837 : :Глава 03
00:10:55.237 : :Глава 04
00:16:17.226 : :Глава 05
00:20:51.291 : :Глава 06
00:24:46.026 : :Глава 07
00:28:42.637 : :Глава 08
00:31:29.637 : :Глава 09
00:36:29.437 : :Глава 10
00:42:16.242 : :Глава 11
00:47:42.276 : :Глава 12
00:52:55.922 : :Глава 13
00:56:40.814 : :Глава 14
00:59:40.410 : :Глава 15
01:04:59.020 : :Глава 16
01:09:31.959 : :Глава 17
01:14:19.121 : :Глава 18
01:19:37.606 : :Глава 19
01:22:40.956 : :Глава 20
01:29:34.535 : :Глава 21


_________________
Проголосуй за трекер Открытый торрент трекер - RUS-MEDIA.ORG

Проголосуй Открытый торрент трекер - RUS-MEDIA.ORG


Вернуться к началу
 Профиль Отправить личное сообщение  
 
   Похожие торренты   Автор   Торрент   Размер 
В этой теме нет новых непрочитанных сообщений. Мистер Бин / Bean [комедия, приключения, семейный, 1997] Blu-Ray 1080p, Dub [Лицензия]

salma3

0 | 0

29.05 ГБ

В этой теме нет новых непрочитанных сообщений. Бетховен / Beethoven [драма, комедия, семейный, 1992] BDRip-HEVC 1080p, Dub

salma3

0 | 0

7.78 ГБ

В этой теме нет новых непрочитанных сообщений. Королевский корги / The Queen's Corgi [мультфильм, комедия, семейный, 2019] BDRip-HEVC 1080p, Dub [iTunes]

salma3

0 | 0

5.37 ГБ

В этой теме нет новых непрочитанных сообщений. Суперсемейка / The Incredibles (Брэд Бёрд) [2004 г., мультфильм, комедия, боевик, приключения, семейный, BDRip-HEVC 1080p] Dub

zorgi

0 | 0

4.91 ГБ

В этой теме нет новых непрочитанных сообщений. Хороший динозавр / The Good Dinosaur [мультфильм, фэнтези, драма, комедия, приключения, семейный, 2015] BDRip-HEVC 1080p, Dub [Лицензия]

K15

10 | 3

6.33 ГБ

В этой теме нет новых непрочитанных сообщений. Дамбо / Dumbo [Фэнтези, семейный, 2019] BDRip-HEVC 1080p, Dub [iTunes]

salma3

13 | 6

2.4 ГБ

В этой теме нет новых непрочитанных сообщений. Парковка / P2 [Ужасы, триллер, криминал, 2007] BDRip-HEVC 1080p, Dub

salma3

0 | 0

6.02 ГБ


Начать новую тему Ответить на тему  [ 1 сообщение ] 




Для Мосгорсуда, Роскомнадзора и рекламодателей:: rstracker[собака]yandex.ru
cron