Торрент файл
скачать торрент магнет ссылка Добавлен: 07 сен 2019, 11:27
Размер: 5.42 ГБ
Сидеров: 0
Личеров: 0
Статус: (salma3)
Автор

СообщениеДобавлено: 07 сен 2019, 11:27 

Не в сети
Супермодератор
Аватара пользователя
Дата регистрации:
15 фев 2012, 16:44
Возраст: 33
Спасибо: 8325 / 2148
Сообщения: 97229
Год выхода: 1986
Жанр: фэнтези, боевик, комедия
Режиссер: Майкл Ритчи

В ролях: Эдди Мёрфи, Дж. Л. Рит, Чарльз Дэнс, Шарлотта Льюис, Виктор Вонг, Рэндал «Текс» Кобб, Джеймс Хонг, Шакти, Тау Лого, Тайгер Чун Ли, ...

О фильме:
Через каждую тысячу поколений на свет появляется идеальный ребенок, дитя, наделенное магической силой, чье предназначение — нести добро миру. Силы зла похитили ребенка… Теперь важнее всего на свете — найти его! Древний оракул Нечунг предсказал, что спасти Золотого ребенка сможет только избранный человек. Согласно предсказанию, это должен быть отважный человек с чистой душой. Под это определение подходит только один смертный — Чендлер из Лос-Анджелеса. Он должен выполнить свою миссию, отвоевать у сил зла Золотого ребенка и спасти мир…



Страна: США
Продолжительность: 01:33:29
Перевод: Профессиональный (многоголосый, закадровый)

Файл
Формат: Matroska
Качество: WEB-DLRip 720p
Видео: 1274x718 at 23.976 fps, x264, ~6894 kbps, 0.314 bpp
Аудио #1: AC-3, 2 ch, 192 kbps (Rus) - MVO СТС
Аудио #2: AC-3, 2 ch, 192 kbps (Rus) - MVO Россия
Аудио #3: AC-3, 6 ch, 384 kbps (Rus) - MVO iTunes
Аудио #4: AC-3, 6 ch, 640 kbps (Eng)
Субтитры: русские, английские
Формат субтитров: softsub (SRT)

x264 info: frame I:1219 Avg QP:17.71 size:103673
x264 info: frame P:27561 Avg QP:18.51 size: 57835
x264 info: frame B:105720 Avg QP:20.42 size: 29452
x264 info: consecutive B-frames: 1.8% 1.8% 3.2% 23.3% 15.9% 44.0% 3.8% 4.1% 1.0% 0.8% 0.3%

General
Format : Matroska
Format version : Version 4
File size : 5.42 GiB
Duration : 1 h 33 min
Overall bit rate : 8 305 kb/s
Movie name : Золотой ребенок.(2005).WEB-DLRip.720p.O.M.[-=DoMiNo=-]
Encoded date : UTC 2019-09-07 05:34:55
Writing application : mkvmerge v37.0.0 ('Leave It') 64-bit
Writing library : libebml v1.3.9 + libmatroska v1.5.2
Attachments : poster / poster

Video
ID : 1
Format : AVC
Format/Info : Advanced Video Codec
Format profile : High@L4.1
Format settings : CABAC / 9 Ref Frames
Format settings, CABAC : Yes
Format settings, Reference : 9 frames
Codec ID : V_MPEG4/ISO/AVC
Duration : 1 h 33 min
Bit rate : 6 894 kb/s
Width : 1 274 pixels
Height : 718 pixels
Display aspect ratio : 16:9
Frame rate mode : Constant
Frame rate : 23.976 (24000/1001) FPS
Color space : YUV
Chroma subsampling : 4:2:0
Bit depth : 8 bits
Scan type : Progressive
Bits/(Pixel*Frame) : 0.314
Stream size : 4.50 GiB (83%)
Title : RIP_BY_-=DoMiNo=-
Writing library : x264 core 157 r2958 57baac4
Encoding settings : cabac=1 / ref=9 / deblock=1:-2:-2 / analyse=0x3:0x133 / me=umh / subme=11 / psy=1 / psy_rd=1.00:0.00 / mixed_ref=1 / me_range=32 / chroma_me=1 / trellis=2 / 8x8dct=1 / cqm=0 / deadzone=21,11 / fast_pskip=1 / chroma_qp_offset=-2 / threads=6 / lookahead_threads=1 / sliced_threads=0 / nr=0 / decimate=1 / interlaced=0 / bluray_compat=0 / constrained_intra=0 / bframes=10 / b_pyramid=2 / b_adapt=2 / b_bias=0 / direct=1 / weightb=1 / open_gop=0 / weightp=2 / keyint=240 / keyint_min=24 / scenecut=40 / intra_refresh=0 / rc_lookahead=120 / rc=crf / mbtree=0 / crf=19.0 / qcomp=0.60 / qpmin=15 / qpmax=69 / qpstep=4 / vbv_maxrate=50000 / vbv_bufsize=62500 / crf_max=30.0 / nal_hrd=none / filler=0 / ip_ratio=1.40 / pb_ratio=1.30 / aq=3:1.00
Language : English
Default : Yes
Forced : No
Color range : Limited
Color primaries : BT.709
Transfer characteristics : BT.709
Matrix coefficients : BT.709

Audio #1
ID : 2
Format : AC-3
Format/Info : Audio Coding 3
Commercial name : Dolby Digital
Codec ID : A_AC3
Duration : 1 h 33 min
Bit rate mode : Constant
Bit rate : 192 kb/s
Channel(s) : 2 channels
Channel layout : L R
Sampling rate : 48.0 kHz
Frame rate : 31.250 FPS (1536 SPF)
Bit depth : 16 bits
Compression mode : Lossy
Stream size : 128 MiB (2%)
Title : MVO СТС
Language : Russian
Service kind : Complete Main
Default : Yes
Forced : No

Audio #2
ID : 3
Format : AC-3
Format/Info : Audio Coding 3
Commercial name : Dolby Digital
Codec ID : A_AC3
Duration : 1 h 33 min
Bit rate mode : Constant
Bit rate : 192 kb/s
Channel(s) : 2 channels
Channel layout : L R
Sampling rate : 48.0 kHz
Frame rate : 31.250 FPS (1536 SPF)
Bit depth : 16 bits
Compression mode : Lossy
Stream size : 128 MiB (2%)
Title : MVO Россия
Language : Russian
Service kind : Complete Main
Default : No
Forced : No

Audio #3
ID : 4
Format : AC-3
Format/Info : Audio Coding 3
Commercial name : Dolby Digital
Codec ID : A_AC3
Duration : 1 h 33 min
Bit rate mode : Constant
Bit rate : 384 kb/s
Channel(s) : 6 channels
Channel layout : L R C LFE Ls Rs
Sampling rate : 48.0 kHz
Frame rate : 31.250 FPS (1536 SPF)
Bit depth : 16 bits
Compression mode : Lossy
Stream size : 257 MiB (5%)
Title : MVO iTunes
Language : Russian
Service kind : Complete Main
Default : No
Forced : No

Audio #4
ID : 5
Format : AC-3
Format/Info : Audio Coding 3
Commercial name : Dolby Digital
Codec ID : A_AC3
Duration : 1 h 33 min
Bit rate mode : Constant
Bit rate : 640 kb/s
Channel(s) : 6 channels
Channel layout : L R C LFE Ls Rs
Sampling rate : 48.0 kHz
Frame rate : 31.250 FPS (1536 SPF)
Bit depth : 16 bits
Compression mode : Lossy
Stream size : 428 MiB (8%)
Language : English
Service kind : Complete Main
Default : No
Forced : No

Text #1
ID : 6
Format : UTF-8
Codec ID : S_TEXT/UTF8
Codec ID/Info : UTF-8 Plain Text
Duration : 1 h 29 min
Bit rate : 77 b/s
Count of elements : 659
Stream size : 50.6 KiB (0%)
Language : Russian
Default : No
Forced : No

Text #2
ID : 7
Format : UTF-8
Codec ID : S_TEXT/UTF8
Codec ID/Info : UTF-8 Plain Text
Duration : 1 h 29 min
Bit rate : 41 b/s
Count of elements : 1068
Stream size : 27.4 KiB (0%)
Title : SDH
Language : English
Default : No
Forced : No

Menu
00:00:00.000 : en:Kidnapped
00:05:54.000 : en:Lost Children
00:10:46.000 : en:He's No Angel
00:13:10.000 : en:Already on the Case
00:17:11.000 : en:The Chosen One
00:22:04.000 : en:You Will Eat
00:25:12.000 : en:A Vision of the Child
00:27:10.000 : en:The Yellow Dragons
00:34:03.000 : en:Tommy Tong's
00:37:17.000 : en:The Ajanti Dagger
00:39:09.000 : en:An Attractive Offer
00:44:50.000 : en:A Dagger of a Child
00:47:47.000 : en:Tibet
00:55:38.000 : en:Stay on the Path
01:04:01.000 : en:So Little Understanding
01:07:53.000 : en:Viva Nepal!
01:11:05.000 : en:My Brother Numspa
01:13:37.000 : en:A Pure Heart
01:18:20.000 : en:Freeing the Child
01:26:18.000 : en:Sundown
01:29:36.000 : en:End Credits


Релиз от: -=DoMiNo=-


_________________
Проголосуй за трекер Открытый торрент трекер - RUS-MEDIA.ORG

Проголосуй Открытый торрент трекер - RUS-MEDIA.ORG


Вернуться к началу
 Профиль Отправить личное сообщение  
 
   Похожие торренты   Автор   Торрент   Размер 
В этой теме нет новых непрочитанных сообщений. Малышка зомби / Zombi Child [Фэнтези, 2019] WEB-DLRip, Mvo [iTunes]

salma3

0 | 0

1.46 ГБ

В этой теме нет новых непрочитанных сообщений. Малышка зомби / Zombi Child [Фэнтези, 2019] WEB-DL 720p, Mvo [iTunes]

salma3

0 | 0

3.23 ГБ

В этой теме нет новых непрочитанных сообщений. Спаси и сохрани / Благослови дитя / Bless the Child [Ужасы, Триллер, Криминал, 2000] WEB-DLRip 720p, Mvo

salma3

0 | 0

3.41 ГБ

В этой теме нет новых непрочитанных сообщений. Чёрный рыцарь / Black Knight [фэнтези, комедия, приключения, 2001] WEB-DLRip 720p, Mvo

salma3

0 | 0

3.19 ГБ

В этой теме нет новых непрочитанных сообщений. Полицейский из Беверли-Хиллз 2 / Beverly Hills Cop II [боевик, триллер, комедия, 1987] WEB-DLRip 720p, Mvo [Open Matte]

salma3

0 | 0

5.15 ГБ

В этой теме нет новых непрочитанных сообщений. В высокой траве / In the Tall Grass [ужасы, триллер, фэнтези, 2019] WEB-DLRip 720p, Mvo

salma3

0 | 0

3.91 ГБ

В этой теме нет новых непрочитанных сообщений. Соломон Кейн / Solomon Kane [Фэнтези, боевик, приключения, 2009] WEB-DLRip 720p, Dub [Open Matte]

salma3

0 | 0

3.01 ГБ


Начать новую тему Ответить на тему  [ 1 сообщение ] 




Для Мосгорсуда, Роскомнадзора и рекламодателей:: rstracker[собака]yandex.ru
cron
cron