COVID-19 - Последняя информация о коронавирусе на сайте Минздрава




Торрент файл
скачать торрент магнет ссылка Добавлен: 01 сен 2019, 00:56
Размер: 2.23 ГБ
Сидеров: 0
Личеров: 0
Статус: (salma3)
Автор

СообщениеДобавлено: 01 сен 2019, 00:56 

Не в сети
Супермодератор
Аватара пользователя
Дата регистрации:
15 фев 2012, 16:44
Возраст: 32
Спасибо: 8304 / 2148
Сообщения: 97085
Год выхода: 1944
Жанр: короткометражка, военный
Режиссер: Альфред Хичкок

В ролях: Поль Бонифас, Пол Кларус, Джин Даттас, Андре Фрер, Полетт Преней

О фильме:
Актер рассказывает о своем участии в движении Сопротивления, работе нелегальной радиостанции и увиливании от нацистов.



Страна: Великобритания
Продолжительность: 00:31:16
Перевод: Профессиональный (многоголосый закадровый) [СВ-Дубль]

Файл
Кодек: x264
Качество: BDRip 1080p
Видео: MPEG-4 AVC, ~ 9484 Кбит/с, 1440x1080, 23.976 кадр/с
Звук:
Аудио#1: Russian AC3, 48.0 khz, 2 ch, 192 kbps - MVO, [СВ-Дубль]
Аудио#2: French DTS, 48.0 khz, 2 ch, 510 kbps - Оригинал (французский)
Субтитры: Английские

General
Unique ID : 219730955403064100553586424900264255487 (0xA54EA486264091989D854310C135DFFF)
Complete name : I:Aventure.Malgache.1944.P.BDRip.1080p.x264.Rus.Fre.mkv
Format : Matroska
Format version : Version 4 / Version 2
File size : 2.23 GiB
Duration : 31 min 16 s
Overall bit rate : 10.2 Mb/s
Encoded date : UTC 2019-08-31 13:59:08
Writing application : mkvmerge v8.3.0 ('Over the Horizon') 32bit
Writing library : libebml v1.3.1 + libmatroska v1.4.2
Attachments : poster.jpg
Video
ID : 1
Format : AVC
Format/Info : Advanced Video Codec
Format profile : High@L4.1
Format settings, CABAC : Yes
Format settings, ReFrames : 4 frames
Codec ID : V_MPEG4/ISO/AVC
Duration : 31 min 15 s
Bit rate : 9 484 kb/s
Width : 1 440 pixels
Height : 1 080 pixels
Display aspect ratio : 4:3
Frame rate mode : Constant
Frame rate : 23.976 (24000/1001) FPS
Color space : YUV
Chroma subsampling : 4:2:0
Bit depth : 8 bits
Scan type : Progressive
Bits/(Pixel*Frame) : 0.254
Stream size : 2.07 GiB (93%)
Writing library : x264 core 157 r2969 d4099dd
Encoding settings : cabac=1 / ref=4 / deblock=1:-3:-3 / analyse=0x3:0x133 / me=umh / subme=9 / psy=1 / psy_rd=1.00:0.00 / mixed_ref=1 / me_range=16 / chroma_me=1 / trellis=2 / 8x8dct=1 / cqm=0 / deadzone=21,11 / fast_pskip=0 / chroma_qp_offset=-2 / threads=18 / lookahead_threads=1 / sliced_threads=0 / nr=0 / decimate=1 / interlaced=0 / bluray_compat=0 / constrained_intra=0 / bframes=3 / b_pyramid=2 / b_adapt=1 / b_bias=0 / direct=3 / weightb=1 / open_gop=0 / weightp=2 / keyint=240 / keyint_min=24 / scenecut=40 / intra_refresh=0 / rc_lookahead=50 / rc=2pass / mbtree=1 / bitrate=9484 / ratetol=1.0 / qcomp=0.60 / qpmin=0 / qpmax=69 / qpstep=4 / cplxblur=20.0 / qblur=0.5 / ip_ratio=1.40 / aq=1:1.00
Language : English
Default : Yes
Forced : No
Audio #1
ID : 2
Format : AC-3
Format/Info : Audio Coding 3
Format settings, Endianness : Big
Codec ID : A_AC3
Duration : 31 min 16 s
Bit rate mode : Constant
Bit rate : 192 kb/s
Channel(s) : 2 channels
Channel positions : Front: L R
Sampling rate : 48.0 kHz
Frame rate : 31.250 FPS (1536 spf)
Bit depth : 16 bits
Compression mode : Lossy
Stream size : 42.9 MiB (2%)
Title : Профессиональный (многоголосый закадровый) [СВ-Дубль]
Language : Russian
Service kind : Complete Main
Default : Yes
Forced : No
Audio #2
ID : 3
Format : DTS
Format/Info : Digital Theater Systems
Mode : 16
Format settings, Endianness : Big
Codec ID : A_DTS
Duration : 31 min 16 s
Bit rate mode : Constant
Bit rate : 510 kb/s
Channel(s) : 2 channels
Channel positions : Front: L R
Sampling rate : 48.0 kHz
Frame rate : 93.750 FPS (512 spf)
Bit depth : 24 bits
Compression mode : Lossy
Stream size : 114 MiB (5%)
Language : French
Default : No
Forced : No
Text
ID : 4
Format : UTF-8
Codec ID : S_TEXT/UTF8
Codec ID/Info : UTF-8 Plain Text
Duration : 30 min 48 s
Bit rate : 98 b/s
Count of elements : 555
Stream size : 22.3 KiB (0%)
Language : English
Default : No
Forced : No



_________________
Проголосуй за трекер Открытый торрент трекер - RUS-MEDIA.ORG

Проголосуй Открытый торрент трекер - RUS-MEDIA.ORG


Скачать книги и аудио книги через торрент


Вернуться к началу
 Профиль Отправить личное сообщение  
 
   Похожие торренты   Автор   Торрент   Размер 
В этой теме нет новых непрочитанных сообщений. Великое приключение Тарзана / Tarzan's Greatest Adventure [Приключения, 1959] BDRip 1080p, Mvo

salma3

0 | 0

7.52 ГБ

В этой теме нет новых непрочитанных сообщений. Ремо Уильямс: Приключение начинается / Remo Williams: The Adventure Begins [Боевик, приключения, комедия, 1985] BDRip 1080p, Mvo

salma3

0 | 0

8.38 ГБ

В этой теме нет новых непрочитанных сообщений. Однажды в Китае / Wong Fei Hung [Боевик, приключение, 1991] BDRip 1080p, Dvo

salma3

0 | 0

10.88 ГБ

В этой теме нет новых непрочитанных сообщений. Дорожное приключение / Road Trip [Комедия, 2000] BDRip-HEVC 1080p, Dub [Unrated]

salma3

10 | 16

7.57 ГБ

В этой теме нет новых непрочитанных сообщений. Путешествие на запад / Tous à l'Ouest: Une aventure de Lucky Luke [приключения, вестерн, 2007] HDRip-AVC, Mvo

salma3

0 | 0

742.46 МБ

В этой теме нет новых непрочитанных сообщений. Ураган / Hurricane [Драма, военный, 2018] BDRip 1080p, Mvo

salma3

404 | 131

9.75 ГБ

В этой теме нет новых непрочитанных сообщений. Траншея 11 / Trench 11 [Ужасы, триллер, военный, 2017] BDRip 1080p, Mvo

salma3

0 | 0

6.95 ГБ


Начать новую тему Ответить на тему  [ 1 сообщение ] 




Для Мосгорсуда, Роскомнадзора и рекламодателей:: rstracker[собака]yandex.ru
cron