COVID-19 - Последняя информация о коронавирусе на сайте Минздрава




Торрент файл
скачать торрент магнет ссылка Добавлен: 27 авг 2019, 11:42
Размер: 2.78 ГБ
Сидеров: 10
Личеров: 0
Автор

СообщениеДобавлено: 27 авг 2019, 11:42 

Не в сети
Супермодератор
Аватара пользователя
Дата регистрации:
15 фев 2012, 16:44
Возраст: 30
Спасибо: 8217 / 2148
Сообщения: 95904
Год выпуска: 1992
Жанр: Комедия
Режиссер: Питер МакДональд

В ролях: Дэймон Уайанс ст., Стэйси Дэш, Джо Сантос, Джон Дил, Гарри Дж. Ленникс, Марлон Уайанс, Марк Белтцман, Куинси Вонг

Описание: Молодой парень вместе со своим братом зарабатывают на жизнь мелким мошенничеством. Полицейский, бывший партнер его покойного отца наставляет парня на путь истинный, но на работу в банковскую компанию он устраивается, чтобы охмурить симпатичную сотрудницу. Он впутывается в опасную махинацию с кредитными карточками, в результате чего последние полчаса экранного времени заняты кровавыми разборками с мордобоем и стрельбой.



Страна: США
Продолжительность: 01:29:42
Перевод1: Профессиональный (многоголосый закадровый)
Перевод2: Авторский одноголосый (Алексей Михалев)

Формат: WEB-DL, MKV, H.264, AC3
Видео: MPEG-4 AVC, 4250 Кбит/с, 1280x720
Аудио 1:: Русский (AC3, 2 ch, 192 Кбит/с) [Многоголосый, закадровый]
Аудио 2:: Русский (AC3, 2 ch, 192 Кбит/с) [Авторский (Михалев)]
Аудио 3:: Английский (AAC, 2 ch)
Субтитры:: Английские

Complete name : D:ВидеоБольше денег - Mo.Money.1992.720p.WEB-DL.mkv
Format : Matroska
Format version : Version 4
File size : 2.78 GiB
Duration : 1 h 29 min
Overall bit rate : 4 442 kb/s
Movie name : Dol.a.le.1992.HUN.720p.WEB-DL.h264-TOXI
Encoded date : UTC 2019-08-22 16:46:18
Writing application : mkvmerge v36.0.0 (''Is That Jazz?'') 64-bit
Writing library : libebml v1.3.9 + libmatroska v1.5.2

Video
ID : 1
Format : AVC
Format/Info : Advanced Video Codec
Format profile :
Format settings : 2 Ref Frames
Format settings, CABAC : No
Format settings, ReFrames : 2 frames
Codec ID : V_MPEG4/ISO/AVC
Duration : 1 h 29 min
Bit rate : 3 898 kb/s
Width : 1 280 pixels
Height : 720 pixels
Display aspect ratio : 16:9
Frame rate mode : Constant
Frame rate : 23.976 (23976/1000) FPS
Color space : YUV
Chroma subsampling : 4:2:0
Bit depth : 8 bits
Scan type : Progressive
Bits/(Pixel*Frame) : 0.176
Stream size : 2.44 GiB (88%)
Language : English
Default : Yes
Forced : No
Color range : Limited
Color primaries : BT.709
Transfer characteristics : BT.709
Matrix coefficients : BT.709

Audio #1
ID : 2
Format : AC-3
Format/Info : Audio Coding 3
Commercial name : Dolby Digital
Codec ID : A_AC3
Duration : 1 h 29 min
Bit rate mode : Constant
Bit rate : 192 kb/s
Channel(s) : 2 channels
Channel layout : L R
Sampling rate : 48.0 kHz
Frame rate : 31.250 FPS (1536 SPF)
Bit depth : 16 bits
Compression mode : Lossy
Delay relative to video : 500 ms
Stream size : 123 MiB (4%)
Title : MVO
Language : Russian
Service kind : Complete Main
Default : Yes
Forced : No

Audio #2
ID : 3
Format : AC-3
Format/Info : Audio Coding 3
Commercial name : Dolby Digital
Codec ID : A_AC3
Duration : 1 h 29 min
Bit rate mode : Constant
Bit rate : 192 kb/s
Channel(s) : 2 channels
Channel layout : L R
Sampling rate : 48.0 kHz
Frame rate : 31.250 FPS (1536 SPF)
Bit depth : 16 bits
Compression mode : Lossy
Stream size : 123 MiB (4%)
Title : AVO Mihalev
Language : Russian
Service kind : Complete Main
Default : No
Forced : No

Audio #3
ID : 4
Format : AAC LC
Format/Info : Advanced Audio Codec Low Complexity
Codec ID : A_AAC-2
Duration : 1 h 29 min
Bit rate : 158 kb/s
Channel(s) : 2 channels
Channel layout : L R
Sampling rate : 48.0 kHz
Frame rate : 46.875 FPS (1024 SPF)
Compression mode : Lossy
Stream size : 101 MiB (4%)
Title : English
Language : English
Default : No
Forced : No

Text
ID : 5
Format : UTF-8
Codec ID : S_TEXT/UTF8
Codec ID/Info : UTF-8 Plain Text
Duration : 1 h 24 min
Bit rate : 56 b/s
Count of elements : 921
Stream size : 34.6 KiB (0%)
Title : Eng
Language : English
Default : No
Forced : No

Menu
00:00:00.000 : en:Start
00:02:56.000 : en:Ripping off Frank Furter
00:07:27.000 : en:Officer in pursuit
00:09:58.000 : en:The holding cell
00:12:37.000 : en:Best lawyer in town
00:19:41.000 : en:"Knowledge is king."
00:23:21.000 : en:Floor-by-floor with Amber
00:24:27.000 : en:Applying for the position
00:27:34.000 : en:Habib''s Deli
00:30:03.000 : en:Waiting for the call
00:32:37.000 : en:His first day
00:36:24.000 : en:Amber''s department
00:40:10.000 : en:Johnny on the job
00:41:20.000 : en:Amber & Tom
00:43:34.000 : en:Loss of face
00:46:47.000 : en:Shopping spree
00:50:44.000 : en:In Amber''s apartment
00:51:55.000 : en:Subway accident
00:53:59.000 : en:Good judge of character
00:58:57.000 : en:Fun with Keith
01:03:49.000 : en:The dance club
01:08:20.000 : en:The morning after
01:10:27.000 : en:Stolen card
01:10:59.000 : en:Interrogation
01:15:18.000 : en:Rescuing Seymour
01:16:36.000 : en:In pursuit of Heading
01:21:48.000 : en:Final confrontation
01:24:01.000 : en:At the hospital


_________________
Проголосуй за трекер Открытый торрент трекер - RUS-MEDIA.ORG

Проголосуй Открытый торрент трекер - RUS-MEDIA.ORG


Скачать книги и аудио книги через торрент


Вернуться к началу
 Профиль Отправить личное сообщение  
 
   Похожие торренты   Автор   Торрент   Размер 
В этой теме нет новых непрочитанных сообщений. Где деньги / Where's the Money [комедия, 2017] WEB-DLRip, Mvo

salma3

371 | 36

1.37 ГБ

В этой теме нет новых непрочитанных сообщений. Карманные деньги / Milk Money [мелодрама, комедия, 1994] WEB-DL 1080p, Mvo

salma3

6 | 0

11.29 ГБ

В этой теме нет новых непрочитанных сообщений. Легкие деньги / Free Money [Комедия, криминал, 1998] WEB-DLRip, Mvo

salma3

0 | 1

2.19 ГБ

В этой теме нет новых непрочитанных сообщений. Легкие деньги / Free Money [комедия, криминал, 1998] WEB-DLRip-AVC, Mvo

salma3

12 | 4

745.84 МБ

В этой теме нет новых непрочитанных сообщений. Легкие деньги / Free Money [комедия, криминал, 1998] WEB-DLRip-AVC, Mvo

salma3

0 | 0

2.18 ГБ

В этой теме нет новых непрочитанных сообщений. Карманные деньги / Milk Money [мелодрама, комедия, 1994] WEB-DLRip-AVC, Mvo

salma3

0 | 0

1.45 ГБ

В этой теме нет новых непрочитанных сообщений. Бесплатные деньги / Money for Nothing [Драма, комедия, криминал, 1993] BDRip 720p, Dvo

salma3

0 | 0

2.23 ГБ


Начать новую тему Ответить на тему  [ 1 сообщение ] 




Для Мосгорсуда, Роскомнадзора и рекламодателей:: rstracker[собака]yandex.ru
cron