Торрент файл
скачать торрент магнет ссылка Добавлен: 21 авг 2019, 21:31
Размер: 4.75 ГБ
Сидеров: 0
Личеров: 0
Статус: (salma3)
Автор

СообщениеДобавлено: 21 авг 2019, 21:31 

Не в сети
Супермодератор
Аватара пользователя
Дата регистрации:
15 фев 2012, 16:44
Возраст: 32
Спасибо: 8320 / 2148
Сообщения: 97229
Год выхода: 2019
Жанр: ужасы, чёрная комедия
Режиссер: Джозеф Маццаферро

В ролях: Мадлен Мерфи, Гейл Йост, Рисса-Кэтрин Мэри, Шон Майкл Глория, Джейсон Хенне, Крис Кавалье, Мелисса Даддио, Джованни Маццаферро, Лиза Макконнелл, Кирни Нельсон, Стефани Таун и др.

О фильме:
В одном городке живет пожилая женщина, которую зовут тетя Этель. О ней ходит довольно жутковатая легенда, согласно которой тетя Этель угощает детей на праздник Хэллоуина не просто так. На самом деле она заманивает их, чтобы потом сделать из них конфеты и тыквенный пирог. Поэтому все ее побаиваются и стараются обходить стороной, но в ближайший Хэллоуин группе подростков, живущих по соседству, удастся узнать некоторые интересные подробности...



Страна: США
Продолжительность: 01:20:05
Перевод: Любительский (двухголосый закадровый) [HiWay Grope]

Файл
Формат видео: MKV
Качество: WEB-DL 1080p
Видео: 1920x800 (2.40:1), 23.976 fps, AVC MPEG-4, High@L4 ~8072 kbps, 0.219 bit/pixel
Аудио: 48 kHz, AC3 Dolby Digital, 2/0 (L,R) ch, ~192 kbps
Субтитры: русские (форсированные), английские (SDH)

General
Unique ID : 256299796178321699234616681533627861229 (0xC0D18B938A0048DF3BF3A97178B688ED)
Complete name : E:Halloween at Aunt Ethel's.2019.WEB-DL.1080p.mkv
Format : Matroska
Format version : Version 4 / Version 2
File size : 4.75 GiB
Duration : 1 h 20 min
Overall bit rate : 8 491 kb/s
Encoded date : UTC 2019-07-27 11:56:41
Writing application : mkvmerge v20.0.0 ('I Am The Sun') 64-bit
Writing library : libebml v1.3.5 + libmatroska v1.4.8

Video
ID : 1
Format : AVC
Format/Info : Advanced Video Codec
Format profile : High@L4
Format settings, CABAC : Yes
Format settings, ReFrames : 4 frames
Codec ID : V_MPEG4/ISO/AVC
Duration : 1 h 20 min
Bit rate mode : Constant
Bit rate : 8 072 kb/s
Nominal bit rate : 10 000 kb/s
Width : 1 920 pixels
Height : 800 pixels
Display aspect ratio : 2.40:1
Frame rate mode : Constant
Frame rate : 23.976 (24000/1001) FPS
Color space : YUV
Chroma subsampling : 4:2:0
Bit depth : 8 bits
Scan type : Progressive
Bits/(Pixel*Frame) : 0.219
Stream size : 4.52 GiB (95%)
Language : English
Default : Yes
Forced : No
Color range : Limited
Color primaries : BT.709
Transfer characteristics : BT.709
Matrix coefficients : BT.709

Audio #1
ID : 2
Format : AC-3
Format/Info : Audio Coding 3
Format settings, Endianness : Big
Codec ID : A_AC3
Duration : 1 h 20 min
Bit rate mode : Constant
Bit rate : 192 kb/s
Channel(s) : 2 channels
Channel positions : Front: L R
Sampling rate : 48.0 kHz
Frame rate : 31.250 FPS (1536 spf)
Bit depth : 16 bits
Compression mode : Lossy
Stream size : 110 MiB (2%)
Title : DVO HiWayGrope
Language : Russian
Service kind : Complete Main
Default : Yes
Forced : No

Audio #2
ID : 3
Format : E-AC-3
Format/Info : Enhanced Audio Coding 3
Format settings, Endianness : Big
Codec ID : A_EAC3
Duration : 1 h 20 min
Bit rate mode : Constant
Bit rate : 224 kb/s
Channel(s) : 2 channels
Channel positions : Front: L R
Sampling rate : 48.0 kHz
Frame rate : 187.500 FPS (256 spf)
Compression mode : Lossy
Stream size : 128 MiB (3%)
Language : English
Service kind : Complete Main
Default : No
Forced : No

Text #1
ID : 4
Format : UTF-8
Codec ID : S_TEXT/UTF8
Codec ID/Info : UTF-8 Plain Text
Duration : 44 min 56 s
Bit rate : 2 b/s
Count of elements : 11
Stream size : 912 Bytes (0%)
Title : forced
Language : Russian
Default : Yes
Forced : Yes

Text #2
ID : 5
Format : UTF-8
Codec ID : S_TEXT/UTF8
Codec ID/Info : UTF-8 Plain Text
Duration : 1 h 20 min
Bit rate : 57 b/s
Count of elements : 1469
Stream size : 33.7 KiB (0%)
Title : SDH
Language : English
Default : No
Forced : No


_________________
Проголосуй за трекер Открытый торрент трекер - RUS-MEDIA.ORG

Проголосуй Открытый торрент трекер - RUS-MEDIA.ORG


Вернуться к началу
 Профиль Отправить личное сообщение  
 
   Похожие торренты   Автор   Торрент   Размер 
В этой теме нет новых непрочитанных сообщений. Хэллоуин убивает / Halloween Kills [Ужасы, триллер, криминал, 2021] WEB-DL 1080p, Dub [iTunes]

salma3

0 | 0

8.24 ГБ

В этой теме нет новых непрочитанных сообщений. Хэллоуин / Halloween [Ужасы, триллер, 1978] BDRip-HEVC 1080p, Mvo

salma3

0 | 0

5.88 ГБ

В этой теме нет новых непрочитанных сообщений. Хэллоуин убивает / Halloween Kills [Ужасы, триллер, 2021] WEB-DLRip, Dub [iTunes]

salma3

14 | 11

1.46 ГБ

В этой теме нет новых непрочитанных сообщений. Хэллоуин убивает / Halloween Kills [ужасы, триллер, криминал, 2021] WEB-DLRip-AVC, Dub [iTunes]

salma3

35 | 10

1.45 ГБ

В этой теме нет новых непрочитанных сообщений. Хэллоуин Хьюби / Hubie Halloween [Комедия, детектив, 2020] WEB-DLRip, Dub [Netflix]

salma3

20 | 6

755.56 МБ

В этой теме нет новых непрочитанных сообщений. Хэллоуин 3: Сезон ведьм / Halloween III: Season of the Witch [ужасы, детектив, фантастика, 1982] UHD BDRemux 2160p, Mvo [4K]

salma3

0 | 3

53.16 ГБ

В этой теме нет новых непрочитанных сообщений. Банана-Сплитс / The Banana Splits Movie [ужасы, фантастика, чёрная комедия, триллер, 2019] WEBRip, Dvo ["Синема УС"]

K15

14 | 0

1.46 ГБ


Начать новую тему Ответить на тему  [ 1 сообщение ] 




Для Мосгорсуда, Роскомнадзора и рекламодателей:: rstracker[собака]yandex.ru
cron