Торрент файл
скачать торрент магнет ссылка Добавлен: 17 авг 2019, 11:18
Размер: 4.09 ГБ
Сидеров: 0
Личеров: 0
Статус: (salma3)
Автор

СообщениеДобавлено: 17 авг 2019, 11:18 

Не в сети
Супермодератор
Аватара пользователя
Дата регистрации:
15 фев 2012, 16:44
Возраст: 33
Спасибо: 8325 / 2148
Сообщения: 97229
Год выхода: 1995
Жанр: Фэнтези, мистика, драма
Режиссер: Льюис Гилберт

В ролях: Эйдан Куинн, Кейт Бекинсейл, Энтони Эндрюс, Джон Гилгуд, Анна Мэсси, Алекс Лоу, Джеральдин Сомервилль, Виктория Шалет, Линда Бэссет, Лиз Смит

О фильме:
Дэвид преподает в Кембридже и пишет статьи, разоблачающие медиумов. Получив полное отчаяния письмо от старой няни, служащей в старинном поместье семейства Мэриэлл, Дэвид надеется быстро развеять ее страхи. А романтическое чувство, возникшее между ним и очаровательной Кристиной Мэриэлл, делает его пребывание в поместье очень приятным. Но последующие события заставляют Дэвида усомниться в собственном душевном здоровье. Из ночной темноты до него доносится едва различимый шепот. Прямо из тьмы возникает нечто, обдавая лицо могильным холодом и оставляя за собой чувство леденящего ужаса…



Страна: Великобритания, США
Продолжительность: 01:47:45
Перевод #1: Профессиональный (многоголосый, закадровый)
Перевод #2: Профессиональный (двухголосый, закадровый)

Качество: BDRip 720p
Видео: AVC, 1176x720 (1,63:1), 5000 kbps, 25 fps
Аудио #1: AC3, 2 ch, 192 kbps (Rus) MVO
Аудио #2: AC3, 2 ch, 192 kbps (Rus) DVO
Аудио #3: AC3, 2 ch, 224 kbps (Eng) Original

Общее
Уникальный идентификатор : 250043760462127163504726024244667612985 (0xBC1CAD33917CDE909D39B96C0D7BFF39)
Полное имя : D:ХранилищеВидеоДом призраковDom.prizrakov.1995.BDRip.720p.mkv
Формат : Matroska
Версия формата : Version 4 / Version 2
Размер файла : 4,09 Гбайт
Продолжительность : 1 ч. 43 м.
Общий поток : 5669 Кбит/сек
Дата кодирования : UTC 2015-05-07 14:15:31
Программа кодирования : mkvmerge v7.8.0 ('River Man') 64bit built on Mar 27 2015 16:31:37
Библиотека кодирования : libebml v1.3.1 + libmatroska v1.4.2
Attachements : cover.jpg

Видео
Идентификатор : 1
Формат : AVC
Формат/Информация : Advanced Video Codec
Профиль формата : High@L4.1
Параметр CABAC формата : Да
Параметр ReFrames формата : 8 кадров
Идентификатор кодека : V_MPEG4/ISO/AVC
Продолжительность : 1 ч. 43 м.
Битрейт : 5000 Кбит/сек
Ширина : 1176 пикселей
Высота : 720 пикселей
Соотношение сторон : 16:10
Режим частоты кадров : Постоянный
Частота кадров : 25,000 кадров/сек
Цветовое пространство : YUV
Субдискретизация насыщенности : 4:2:0
Битовая глубина : 8 бит
Тип развёртки : Прогрессивная
Бит/(Пиксели*Кадры) : 0.236
Размер потока : 3,57 Гбайт (87%)
Библиотека кодирования : x264 core 146 r2538 121396c
Настройки программы : cabac=1 / ref=8 / deblock=1:-1:-1 / analyse=0x3:0x133 / me=esa / subme=11 / psy=1 / psy_rd=1.00:0.00 / mixed_ref=1 / me_range=64 / chroma_me=1 / trellis=2 / 8x8dct=1 / cqm=0 / deadzone=21,11 / fast_pskip=0 / chroma_qp_offset=-2 / threads=18 / lookahead_threads=1 / sliced_threads=0 / nr=0 / decimate=1 / interlaced=0 / bluray_compat=0 / constrained_intra=0 / bframes=2 / b_pyramid=2 / b_adapt=2 / b_bias=0 / direct=3 / weightb=1 / open_gop=0 / weightp=2 / keyint=250 / keyint_min=25 / scenecut=40 / intra_refresh=0 / rc_lookahead=250 / rc=2pass / mbtree=1 / bitrate=5000 / ratetol=10.0 / qcomp=0.70 / qpmin=0 / qpmax=51 / qpstep=4 / cplxblur=20.0 / qblur=0.5 / vbv_maxrate=62500 / vbv_bufsize=78125 / nal_hrd=none / filler=0 / ip_ratio=1.40 / aq=1:0.90
Default : Да
Forced : Да

Аудио #1
Идентификатор : 2
Формат : AC-3
Формат/Информация : Audio Coding 3
Расширение режима : CM (complete main)
Параметр Endianness формата : Big
Идентификатор кодека : A_AC3
Продолжительность : 1 ч. 43 м.
Вид битрейта : Постоянный
Битрейт : 192 Кбит/сек
Каналы : 2 канала
Расположение каналов : Front: L R
Частота : 48,0 КГц
Битовая глубина : 16 бит
Метод сжатия : С потерями
Размер потока : 142 Мбайт (3%)
Заголовок : Многоголосый
Язык : Russian
Default : Да
Forced : Нет

Аудио #2
Идентификатор : 3
Формат : AC-3
Формат/Информация : Audio Coding 3
Расширение режима : CM (complete main)
Параметр Endianness формата : Big
Идентификатор кодека : A_AC3
Продолжительность : 1 ч. 43 м.
Вид битрейта : Постоянный
Битрейт : 192 Кбит/сек
Каналы : 2 канала
Расположение каналов : Front: L R
Частота : 48,0 КГц
Битовая глубина : 16 бит
Метод сжатия : С потерями
Размер потока : 142 Мбайт (3%)
Заголовок : Двухголосый
Язык : Russian
Default : Нет
Forced : Нет

Аудио #3
Идентификатор : 4
Формат : AC-3
Формат/Информация : Audio Coding 3
Расширение режима : CM (complete main)
Параметр Endianness формата : Big
Идентификатор кодека : A_AC3
Продолжительность : 1 ч. 43 м.
Вид битрейта : Постоянный
Битрейт : 224 Кбит/сек
Каналы : 2 канала
Расположение каналов : Front: L R
Частота : 48,0 КГц
Битовая глубина : 16 бит
Метод сжатия : С потерями
Размер потока : 165 Мбайт (4%)
Заголовок : Оригинал
Язык : English
Default : Нет
Forced : Нет



_________________
Проголосуй за трекер Открытый торрент трекер - RUS-MEDIA.ORG

Проголосуй Открытый торрент трекер - RUS-MEDIA.ORG


Вернуться к началу
 Профиль Отправить личное сообщение  
 
   Похожие торренты   Автор   Торрент   Размер 
В этой теме нет новых непрочитанных сообщений. Если только / If only [фэнтези, драма, комедия, 2004] BDRip 720p, Mvo

salma3

1 | 2

6.51 ГБ

В этой теме нет новых непрочитанных сообщений. Маяк / The Lighthouse [Ужасы, фэнтези, драма, 2019] BDRip 720p, Mvo

salma3

3 | 1

6.68 ГБ

В этой теме нет новых непрочитанных сообщений. Разборка в Бронксе / Hong faan kui [боевик, комедия, 1995] BDRip 720p, Mvo

salma3

0 | 0

3.74 ГБ

В этой теме нет новых непрочитанных сообщений. Лучшие из лучших 3 / Best of the Best 3: No Turning Back [боевик, триллер, криминал, 1995] BDRip 720p, Mvo

salma3

0 | 0

7.75 ГБ

В этой теме нет новых непрочитанных сообщений. Водный мир / Waterworld [Фантастика, боевик, приключения, 1995] BDRip 720p, Mvo, Avo

zorgi

0 | 0

12.98 ГБ

В этой теме нет новых непрочитанных сообщений. Шлюха / Jade [триллер, драма, криминал, 1995] BDRip-AVC, Mvo

salma3

9 | 22

1.81 ГБ

В этой теме нет новых непрочитанных сообщений. Суспирия / Suspiria [Ужасы, мистика, драма, 1977] BDRip 1080p, Mvo

salma3

0 | 0

10.62 ГБ


Начать новую тему Ответить на тему  [ 1 сообщение ] 




Для Мосгорсуда, Роскомнадзора и рекламодателей:: rstracker[собака]yandex.ru
cron