COVID-19 - Последняя информация о коронавирусе на сайте Минздрава




Торрент файл
скачать торрент магнет ссылка Добавлен: 16 авг 2019, 00:56
Размер: 3.7 ГБ
Сидеров: 0
Личеров: 0
Статус: (salma3)
Автор

СообщениеДобавлено: 16 авг 2019, 00:56 

Не в сети
Супермодератор
Аватара пользователя
Дата регистрации:
15 фев 2012, 16:44
Возраст: 32
Спасибо: 8304 / 2148
Сообщения: 97126
Год выпуска: 2019
Жанр: Приключения, семейный
Режиссер: Филип Марлатт

В ролях: Тайлер Джейд Никсон, Аксель Маккой, Трэвис Маккой, Алексис Лодер, Девон Гоу, Тим Оглтри, ЛаВон Хэмилтон, Майя Симмонс, Куддус Ньютон, Томи Калмер

О фильме: Отдыхая со своей семьей на тропическом острове на Багамах, 10-летний Люк знакомится с дружелюбным и игривым дельфином Эхо. Дельфин становится верным другом Люка, с которым он проводит всё своё свободное время, ныряя в волнах и играя целыми днями напролёт. Однажды дельфин Эхо оказывается в опасности. Люк со своей сестрой разрабатывают план, чтобы спасти их нового друга.



Выпущено: США, Aristar Entertainment
Продолжительность: 01:30:15
Перевод 1: Профессиональный (полное дублирование) Студия «Позитив»
Перевод 2: Профессиональный (многоголосый закадровый) HDRezka Studio

Файл
Формат: MKV
Качество: WEB-DL 1080p
Видео: MPEG-4 AVC Video, 1910x1070 (16:9), 5097 Kbps, 23.976 fps
Аудио#1: Russian (AC3, 2 ch, 192 kbps, 16 bits, 48.0 KHz) - DUB, Позитив
Аудио#2: Russian (AC3, 2 ch, 192 kbps, 16 bits, 48.0 KHz) - HDRezka Studio
Аудио#3: English (AC3, 6 ch, 384 kbps, 16 bits, 48.0 KHz) - Оригинал
Субтитры: Английские

General
Unique ID : 144921559146267711547973328285792304505 (0x6D06E08558BD8E5920E0586638897D79)
Complete name : G:Dolphin.Kick.2019.WEB-DL.1080p.mkv
Format : Matroska
Format version : Version 4 / Version 2
File size : 3.70 GiB
Duration : 1 h 30 min
Overall bit rate : 5 868 kb/s
Encoded date : UTC 2019-08-15 06:48:28
Writing application : mkvmerge v20.0.0 ('I Am The Sun') 64-bit
Writing library : libebml v1.3.5 + libmatroska v1.4.8

Video
ID : 1
Format : AVC
Format/Info : Advanced Video Codec
Format profile : High@L4
Format settings : CABAC / 4 Ref Frames
Format settings, CABAC : Yes
Format settings, RefFrames : 4 frames
Codec ID : V_MPEG4/ISO/AVC
Duration : 1 h 30 min
Bit rate : 5 097 kb/s
Width : 1 910 pixels
Height : 1 070 pixels
Display aspect ratio : 16:9
Frame rate mode : Constant
Frame rate : 23.976 (24000/1001) FPS
Color space : YUV
Chroma subsampling : 4:2:0
Bit depth : 8 bits
Scan type : Progressive
Bits/(Pixel*Frame) : 0.104
Stream size : 3.21 GiB (87%)
Language : English
Default : Yes
Forced : No
Color range : Limited
Color primaries : BT.709
Transfer characteristics : BT.709
Matrix coefficients : BT.709

Audio #1
ID : 2
Format : AC-3
Format/Info : Audio Coding 3
Codec ID : A_AC3
Duration : 1 h 30 min
Bit rate mode : Constant
Bit rate : 192 kb/s
Channel(s) : 2 channels
Channel positions : Front: L R
Sampling rate : 48.0 kHz
Frame rate : 31.250 FPS (1536 SPF)
Bit depth : 16 bits
Compression mode : Lossy
Stream size : 124 MiB (3%)
Title : Dub Pozitiv
Language : Russian
Service kind : Complete Main
Default : Yes
Forced : No

Audio #2
ID : 3
Format : AC-3
Format/Info : Audio Coding 3
Codec ID : A_AC3
Duration : 1 h 30 min
Bit rate mode : Constant
Bit rate : 192 kb/s
Channel(s) : 2 channels
Channel positions : Front: L R
Sampling rate : 48.0 kHz
Frame rate : 31.250 FPS (1536 SPF)
Bit depth : 16 bits
Compression mode : Lossy
Stream size : 124 MiB (3%)
Title : MVO HDRezka Studio
Language : Russian
Service kind : Complete Main
Default : No
Forced : No

Audio #3
ID : 4
Format : AC-3
Format/Info : Audio Coding 3
Codec ID : A_AC3
Duration : 1 h 30 min
Bit rate mode : Constant
Bit rate : 384 kb/s
Channel(s) : 6 channels
Channel positions : Front: L C R, Side: L R, LFE
Sampling rate : 48.0 kHz
Frame rate : 31.250 FPS (1536 SPF)
Bit depth : 16 bits
Compression mode : Lossy
Stream size : 248 MiB (7%)
Language : English
Service kind : Complete Main
Default : No
Forced : No

Text
ID : 5
Format : UTF-8
Codec ID : S_TEXT/UTF8
Codec ID/Info : UTF-8 Plain Text
Duration : 1 h 26 min
Bit rate : 58 b/s
Count of elements : 1378
Stream size : 37.3 KiB (0%)
Language : English
Default : No
Forced : No


_________________
Проголосуй за трекер Открытый торрент трекер - RUS-MEDIA.ORG

Проголосуй Открытый торрент трекер - RUS-MEDIA.ORG


Скачать книги и аудио книги через торрент


Вернуться к началу
 Профиль Отправить личное сообщение  
 
   Похожие торренты   Автор   Торрент   Размер 
В этой теме нет новых непрочитанных сообщений. Дельфин Берни / Bernie The Dolphin [Приключения, комедия, семейный, 2018] BDRip 1080p, Dub [iTunes]

salma3

0 | 0

7.21 ГБ

В этой теме нет новых непрочитанных сообщений. Дельфин Берни / Bernie The Dolphin [Приключения, комедия, семейный, 2018] BDRip, Dub [iTunes]

salma3

0 | 0

1.42 ГБ

В этой теме нет новых непрочитанных сообщений. Дельфин Берни / Bernie The Dolphin [Приключения, комедия, семейный, 2018] BDRip-AVC, Dub [iTunes]

salma3

0 | 0

743.55 МБ

В этой теме нет новых непрочитанных сообщений. Милый друг / La dernière vie de Simon [Фантастика, мелодрама, семейный, 2019] WEB-DL 1080p, Dub [iTunes]

salma3

0 | 0

3.42 ГБ

В этой теме нет новых непрочитанных сообщений. Милый друг / La dernière vie de Simon [Фантастика, мелодрама, семейный, 2019] WEB-DLRip, Dub [iTunes]

salma3

0 | 0

1.46 ГБ

В этой теме нет новых непрочитанных сообщений. Наследники 3 / Descendants 3 [Мюзикл, приключения, семейный, 2019] WEB-DL 1080p, Dub [iTunes]

salma3

0 | 3

7.93 ГБ

В этой теме нет новых непрочитанных сообщений. Питомец Юрского периода / The Adventures of Jurassic Pet [Приключения, семейный, 2019] WEB-DL 1080p, Dub [iTunes] [Локализованная версия]

salma3

4 | 7

2.88 ГБ


Начать новую тему Ответить на тему  [ 1 сообщение ] 




Для Мосгорсуда, Роскомнадзора и рекламодателей:: rstracker[собака]yandex.ru
cron