Торрент файл
скачать торрент магнет ссылка Добавлен: 14 авг 2019, 01:13
Размер: 5.01 ГБ
Сидеров: 1881
Личеров: 763
Статус: (salma3)
Автор

СообщениеДобавлено: 14 авг 2019, 01:13 

Не в сети
Супермодератор
Аватара пользователя
Дата регистрации:
15 фев 2012, 16:44
Возраст: 32
Спасибо: 8321 / 2148
Сообщения: 97229
Год выхода: 2019
Жанр: фантастика, фэнтези, боевик
Режиссер: Майкл Догерти

В ролях: Кайл Чандлер, Вера Фармига, Милли Бобби Браун, Кэн Ватанабэ, Цзыи Чжан, Брэдли Уитфорд, Салли Хокинс, Чарльз Дэнс, Томас Миддлдитч, Аиша Хайндс, О`Ши Джексон мл., Дэвид Стрэтэйрн, Энтони Рамос, Элизабет Ладлоу, Джонатан Ховард, Си Си Эйч Паундер, Джо Мортон, Тайлер Крумли, Келли Гарнер

О фильме:
История рассказывает о героических усилиях криптозоологического агентства «Монарх» по сдерживанию гигантских монстров. В этот раз против могучего Годзиллы выступают Мотра, Родан и ультимативный кайдзю - трёхголовый монстр Кинг Гидора. Когда эти древние суперхищники, со временем превратившиеся в полузабытые мифы, восстают снова, чтобы сойтись в схватке, человечеству остаётся отойти в сторонку и постараться не погибнуть.



Страна: США, Япония
Продолжительность: 02:11:41
Перевод: Дубляж [iTunes]

Файл
Качество: WEB-DL 1080p
Видео: MPEG-4 AVC, 4514 Kбит/с, 1920x800, 23.976 кадр/с
Аудио #01: 48 kHz, AC3, 5.1, 384 Kbps | iTunes | RUS
Аудио #02: 48 kHz, AАС, 2.0, 160 Kbps | iTunes | UKR
Аудио #03: 48 kHz, AC3, 5.1, 384 Kbps | Оригинал | ENG
Субтитры: Русские (Forced, full), украинские, английские

General
Unique ID : 173359044337382421729269661852726108618 (0x826BBCCA4ECB79ACBAB9BBE22C1AA1CA)
Complete name : C:Godzilla.King.of.the.Monsters.2019.1080p.WEB-DL.DD5.1.H264-FGTGodzilla.King.of.the.Monsters.2019.1080p.WEB-DL.DD5.1.H264-FGT (1).mkv
Format : Matroska
Format version : Version 2
File size : 5.01 GiB
Duration : 2 h 11 min
Overall bit rate : 5 444 kb/s
Movie name : Godzilla.King.of.the.Monsters 2019.1080p from ExKinoRay
Encoded date : UTC 2019-08-13 20:41:03
Writing application : mkvmerge v5.6.0 ('Kenya Kane') built on May 27 2012 16:44:04
Writing library : libebml v1.2.3 + libmatroska v1.3.0

Video
ID : 1
Format : AVC
Format/Info : Advanced Video Codec
Format profile : High@L4
Format settings, CABAC : Yes
Format settings, ReFrames : 5 frames
Codec ID : V_MPEG4/ISO/AVC
Duration : 2 h 11 min
Width : 1 920 pixels
Height : 800 pixels
Display aspect ratio : 2.40:1
Frame rate mode : Constant
Frame rate : 23.976 (24000/1001) FPS
Color space : YUV
Chroma subsampling : 4:2:0
Bit depth : 8 bits
Scan type : Progressive
Title : Godzilla.King.of.the.Monsters.2019
Language : English
Default : Yes
Forced : No
Color range : Limited
Color primaries : BT.709
Transfer characteristics : BT.709
Matrix coefficients : BT.709

Audio #1
ID : 2
Format : AC-3
Format/Info : Audio Coding 3
Mode extension : CM (complete main)
Format settings, Endianness : Big
Codec ID : A_AC3
Duration : 2 h 11 min
Bit rate mode : Constant
Bit rate : 384 kb/s
Channel(s) : 6 channels
Channel positions : Front: L C R, Side: L R, LFE
Sampling rate : 48.0 kHz
Frame rate : 31.250 FPS (1536 spf)
Compression mode : Lossy
Stream size : 362 MiB (7%)
Title : iTunes
Language : Russian
Default : No
Forced : No

Audio #2
ID : 3
Format : AAC
Format/Info : Advanced Audio Codec
Format profile : LC
Codec ID : A_AAC
Duration : 2 h 11 min
Channel(s) : 2 channels
Channel positions : Front: L R
Sampling rate : 48.0 kHz
Frame rate : 46.875 FPS (1024 spf)
Compression mode : Lossy
Language : Ukrainian
Default : No
Forced : No

Audio #3
ID : 4
Format : AC-3
Format/Info : Audio Coding 3
Mode extension : CM (complete main)
Format settings, Endianness : Big
Codec ID : A_AC3
Duration : 2 h 11 min
Bit rate mode : Constant
Bit rate : 384 kb/s
Channel(s) : 6 channels
Channel positions : Front: L C R, Side: L R, LFE
Sampling rate : 48.0 kHz
Frame rate : 31.250 FPS (1536 spf)
Compression mode : Lossy
Stream size : 362 MiB (7%)
Language : English
Default : No
Forced : No

Text #1
ID : 5
Format : UTF-8
Codec ID : S_TEXT/UTF8
Codec ID/Info : UTF-8 Plain Text
Title : Forced
Language : Russian
Default : Yes
Forced : No

Text #2
ID : 6
Format : UTF-8
Codec ID : S_TEXT/UTF8
Codec ID/Info : UTF-8 Plain Text
Title : Full
Language : Russian
Default : No
Forced : No

Text #3
ID : 7
Format : UTF-8
Codec ID : S_TEXT/UTF8
Codec ID/Info : UTF-8 Plain Text
Language : Ukrainian
Default : No
Forced : No

Text #4
ID : 8
Format : UTF-8
Codec ID : S_TEXT/UTF8
Codec ID/Info : UTF-8 Plain Text
Language : English
Default : No
Forced : No

Text #5
ID : 9
Format : UTF-8
Codec ID : S_TEXT/UTF8
Codec ID/Info : UTF-8 Plain Text
Title : SDH
Language : English
Default : No
Forced : No

Menu
00:00:00.000 : en:1
00:10:52.902 : en:2
00:18:05.834 : en:3
00:30:26.324 : en:4
00:45:17.631 : en:5
00:54:10.038 : en:6
01:05:40.645 : en:7
01:09:30.583 : en:8
01:19:30.307 : en:9
01:30:05.233 : en:10
01:38:35.868 : en:11
01:49:57.883 : en:12
01:59:27.826 : en:13

Релиз от:


_________________
Проголосуй за трекер Открытый торрент трекер - RUS-MEDIA.ORG

Проголосуй Открытый торрент трекер - RUS-MEDIA.ORG


Вернуться к началу
 Профиль Отправить личное сообщение  
 
   Похожие торренты   Автор   Торрент   Размер 
В этой теме нет новых непрочитанных сообщений. Годзилла 2: Король монстров / Godzilla: King of the Monsters [Фантастика, фэнтези, боевик, 2019] WEB-DL 1080p, Dub [iTunes]

salma3

47 | 48

9.58 ГБ

В этой теме нет новых непрочитанных сообщений. Годзилла 2: Король монстров / Godzilla: King of the Monsters [фантастика, фэнтези, боевик, 2019] WEB-DL 720p, Dub [iTunes]

salma3

1 | 1

4.04 ГБ

В этой теме нет новых непрочитанных сообщений. Годзилла 2: Король монстров / Godzilla: King of the Monsters [Фантастика, фэнтези, боевик, 2019] WEB-DL 720p, Dub [iTunes]

salma3

0 | 0

5.78 ГБ

В этой теме нет новых непрочитанных сообщений. Годзилла 2: Король монстров / Godzilla: King of the Monsters [фантастика, фэнтези, боевик, 2019] WEB-DLRip-AVC, Dub [iTunes]

salma3

30 | 4

745.87 МБ

В этой теме нет новых непрочитанных сообщений. Годзилла 2: Король монстров / Godzilla: King of the Monsters [Фантастика, фэнтези, боевик, 2019] BDRip 1080p, Dub [iTunes] [3D-Video]

salma3

14 | 0

14 ГБ

В этой теме нет новых непрочитанных сообщений. Годзилла 2: Король монстров / Godzilla: King of the Monsters [Фантастика, фэнтези, боевик, 2019] WEB-DL 1080p, Mvo

salma3

15 | 1

9.23 ГБ

В этой теме нет новых непрочитанных сообщений. Годзилла 2: Король монстров / Ґодзілла II: Король монстрів / Godzilla: King of the Monsters [Фантастика, фэнтези, боевик, 2019] WEBRip, Dub [Line] [UKR]

salma3

0 | 3

2.02 ГБ


Начать новую тему Ответить на тему  [ 1 сообщение ] 




Для Мосгорсуда, Роскомнадзора и рекламодателей:: rstracker[собака]yandex.ru
cron