Торрент файл
скачать торрент магнет ссылка Добавлен: 08 авг 2019, 20:41
Размер: 7.76 ГБ
Сидеров: 12
Личеров: 18
Статус: (salma3)
Автор

СообщениеДобавлено: 08 авг 2019, 20:41 

Не в сети
Супермодератор
Аватара пользователя
Дата регистрации:
15 фев 2012, 16:44
Возраст: 32
Спасибо: 8321 / 2148
Сообщения: 97229
Год выхода: 1992
Жанр: драма, вестерн
Режиссер: Клинт Иствуд

В ролях: Клинт Иствуд, Джин Хэкмен, Морган Фриман, Ричард Харрис, Джеймс Вулветт, Сол Рубинек, Фрэнсис Фишер, Анна Левайн-Томпсон, Дэвид Муччи, Роб Кэмпбелл, Энтони Джеймс, Тара Фредерик, Беверли Эллиотт, Лииса Репо-Мартелл, Джози Смит, Шейн Майер, Алин Левассер

О фильме:
Два ковбоя приезжают в публичный дом. Один из них раздевается, проститутка отпускает комментарий по поводу размера его члена, и ковбой режет ей лицо ножом. Собрание проституток решает собрать денег и кинуть клич - пусть желающие заработать тысячу долларов убьют ковбоя, изуродовавшего проститутку. В надежде получить денег едет и престарелый негодяй и убийца Уильям Мани. Молодая жена перевоспитала Уильяма и сумела объяснить ему, что беспробудное пьянство и стрельба по людям - далеко не самые правильные занятия для христианина. Но жена давно умерла, Уильям Мани состарился, скот болеет, денег нет, и надо где-то заработать на подъём хозяйства.



Страна: США
Продолжительность: 02:10:41
Перевод: Профессиональный (многоголосый закадровый - Позитив-Мультимедиа)

Файл
Контейнер: MKV
Качество: BDRip 1080p
Видео: 1920x816 (2.35:1), AVC, 7416 Kbps, 23.976 fps
Аудио #1: AC3, 6 ch, 448 kbps (Русский)
Аудио #2: AC3, 6 ch, 640 Kbps (Английский)
Субтитры: Русские ( Позитив-Мультимедиа ), Английские
Главы: Есть

Семпл

Общее
Уникальный идентификатор : 175298583055288431929511562970137111002 (0x83E1476E9B774862A69DA05A948829DA)
Полное имя : D:Новая папка (2)Unforgiven.1992.BDRip.1080р.mkv
Формат : Matroska
Версия формата : Version 2
Размер файла : 7,76 Гбайт
Продолжительность : 2 ч. 10 м.
Общий поток : 8505 Кбит/сек
Название фильма : Unforgiven.1992.BDRip
Дата кодирования : UTC 2013-03-16 19:17:33
Программа кодирования : mkvmerge v5.8.0 ('No Sleep / Pillow') built on Sep 2 2012 15:37:04
Библиотека кодирования : libebml v1.2.3 + libmatroska v1.3.0

Видео
Идентификатор : 1
Формат : AVC
Формат/Информация : Advanced Video Codec
Профиль формата : High@L4.1
Параметр CABAC формата : Да
Параметр ReFrames формата : 5 кадров
Идентификатор кодека : V_MPEG4/ISO/AVC
Продолжительность : 2 ч. 10 м.
Битрейт : 7416 Кбит/сек
Ширина : 1920 пикселей
Высота : 816 пикселей
Соотношение сторон : 2,35:1
Режим частоты кадров : Постоянный
Частота кадров : 23,976 кадра/сек
Цветовое пространство : YUV
Субдискретизация насыщенности : 4:2:0
Битовая глубина : 8 бит
Тип развёртки : Прогрессивная
Бит/(Пиксели*Кадры) : 0.197
Размер потока : 6,62 Гбайт (85%)
Заголовок : Unforgiven.1992.BDRip
Библиотека кодирования : x264 core 129 r2230 1cffe9f
Настройки программы : cabac=1 / ref=5 / deblock=1:-3:-3 / analyse=0x3:0x133 / me=umh / subme=10 / psy=1 / psy_rd=1.00:0.10 / mixed_ref=1 / me_range=32 / chroma_me=1 / trellis=2 / 8x8dct=1 / cqm=0 / deadzone=21,11 / fast_pskip=0 / chroma_qp_offset=-3 / threads=12 / lookahead_threads=2 / sliced_threads=0 / nr=0 / decimate=0 / interlaced=0 / bluray_compat=0 / constrained_intra=0 / bframes=4 / b_pyramid=2 / b_adapt=2 / b_bias=0 / direct=3 / weightb=1 / open_gop=0 / weightp=2 / keyint=240 / keyint_min=23 / scenecut=40 / intra_refresh=0 / rc=2pass / mbtree=0 / bitrate=7416 / ratetol=1.0 / qcomp=0.60 / qpmin=0 / qpmax=69 / qpstep=4 / cplxblur=20.0 / qblur=0.5 / ip_ratio=1.40 / pb_ratio=1.30 / aq=1:1.00
Язык : English
Default : Да
Forced : Нет

Аудио #1
Идентификатор : 2
Формат : AC-3
Формат/Информация : Audio Coding 3
Расширение режима : CM (complete main)
Параметр Endianness формата : Big
Идентификатор кодека : A_AC3
Продолжительность : 2 ч. 10 м.
Вид битрейта : Постоянный
Битрейт : 448 Кбит/сек
Каналы : 6 каналов
Расположение каналов : Front: L C R, Side: L R, LFE
Частота : 48,0 КГц
Битовая глубина : 16 бит
Метод сжатия : С потерями
Размер потока : 419 Мбайт (5%)
Заголовок : MVO Позитив-Мультимедиа
Язык : Russian
Default : Да
Forced : Нет

Аудио #2
Идентификатор : 3
Формат : AC-3
Формат/Информация : Audio Coding 3
Расширение режима : CM (complete main)
Параметр Endianness формата : Big
Идентификатор кодека : A_AC3
Продолжительность : 2 ч. 10 м.
Вид битрейта : Постоянный
Битрейт : 640 Кбит/сек
Каналы : 6 каналов
Расположение каналов : Front: L C R, Side: L R, LFE
Частота : 48,0 КГц
Битовая глубина : 16 бит
Метод сжатия : С потерями
Размер потока : 598 Мбайт (8%)
Заголовок : Оригинал
Язык : English
Default : Нет
Forced : Нет

Текст #1
Идентификатор : 4
Формат : UTF-8
Идентификатор кодека : S_TEXT/UTF8
Идентификатор кодека/Информация : UTF-8 Plain Text
Заголовок : Позитив-Мультимедиа
Язык : Russian
Default : Нет
Forced : Нет

Текст #2
Идентификатор : 5
Формат : UTF-8
Идентификатор кодека : S_TEXT/UTF8
Идентификатор кодека/Информация : UTF-8 Plain Text
Заголовок : Оригинал
Язык : English
Default : Нет
Forced : Нет

Меню
00:00:00.000 : en:Foreword
00:01:11.863 : en:Disturbance in Big Whiskey
00:03:54.359 : en:Little Bill's "No Fuss" Fine
00:07:01.379 : en:Finances ("We Ain't Horses")
00:08:17.622 : en:The Schofield Kid's Proposal
00:14:10.808 : en:Payment Day
00:16:54.805 : en:Out of Practice
00:24:18.582 : en:"We Done Stuff for Money Before, Ned."
00:28:52.689 : en:Just a Fella Now
00:31:42.358 : en:The Majesty of Royalty
00:34:34.864 : en:No Firearms Allowed; Unafraid But No Carpenter
00:38:54.123 : en:Welcoming English Bob
00:46:24.907 : en:A Not-So-Straight Shooter
00:53:44.346 : en:The Duke of Death's True Exploits
00:58:05.273 : en:Killer's Campfire
01:00:24.912 : en:An Object Lesson in Killing
01:06:49.130 : en:Farewell to Savages
01:09:36.297 : en:Hang the Carpenter; Vision of the Dead
01:13:48.882 : en:The Hospitality of Big Whiskey
01:20:59.813 : en:The Angel of Death
01:24:46.873 : en:"We Both Got Scars"
01:29:38.998 : en:Water for a Dying Man
01:34:27.453 : en:Ned's Decision
01:36:10.890 : en:"He Had It Coming!"
01:41:11.190 : en:Little Bill Interrogates Ned
01:43:13.812 : en:Assassins Strike
01:45:50.469 : en:"It's A Helluva Thing, Killin' a Man"
01:49:19.344 : en:Will's Only Friend
01:53:14.746 : en:On Display
01:54:34.325 : en:"I'm Here to Kill You, Little Bill"
01:58:21.719 : en:Always Been Lucky; "Deserves Got Nothin' to Do with It"
02:02:13.117 : en:A Killer's Threat
02:04:32.256 : en:Epilogue and End Credits


_________________
Проголосуй за трекер Открытый торрент трекер - RUS-MEDIA.ORG

Проголосуй Открытый торрент трекер - RUS-MEDIA.ORG


Вернуться к началу
 Профиль Отправить личное сообщение  
 
   Похожие торренты   Автор   Торрент   Размер 
В этой теме нет новых непрочитанных сообщений. Бетховен / Beethoven [драма, комедия, семейный, 1992] BDRip-HEVC 1080p, Dub

salma3

0 | 0

7.78 ГБ

В этой теме нет новых непрочитанных сообщений. Игрок / The Player [Триллер, драма, мелодрама, 1992] BDRip 720p, Mvo

salma3

0 | 0

8.46 ГБ

В этой теме нет новых непрочитанных сообщений. Дженнифер 8 / Jennifer Eight [Триллер, драма, криминал, 1992] BDRip 720p, Mvo

salma3

0 | 0

9.26 ГБ

В этой теме нет новых непрочитанных сообщений. Беглый огонь / Rapid Fire [Боевик, триллер, драма, 1992] BDRip 1080p, Dub

salma3

0 | 0

11.64 ГБ

В этой теме нет новых непрочитанных сообщений. Белые пески / White Sands [боевик, триллер, драма, 1992] BDRip, Mvo

salma3

0 | 0

1.46 ГБ

В этой теме нет новых непрочитанных сообщений. Чужой среди нас / A Stranger Among Us [Драма, мелодрама, криминал, 1992] BDRip 720p, Mvo

salma3

0 | 0

7.54 ГБ

В этой теме нет новых непрочитанных сообщений. Сын / The Son [S02] [Драма, вестерн, экранизация, 2019] WEB-DLRip 1080p, Mvo | [IdeaFilm]

NTL

0 | 0

24.58 ГБ


Начать новую тему Ответить на тему  [ 1 сообщение ] 




Для Мосгорсуда, Роскомнадзора и рекламодателей:: rstracker[собака]yandex.ru
cron