Торрент файл
скачать торрент магнет ссылка Добавлен: 08 авг 2019, 20:39
Размер: 9.98 ГБ
Сидеров: 0
Личеров: 0
Статус: (salma3)
Автор

СообщениеДобавлено: 08 авг 2019, 20:39 

Не в сети
Супермодератор
Аватара пользователя
Дата регистрации:
15 фев 2012, 16:44
Возраст: 32
Спасибо: 8321 / 2148
Сообщения: 97229
Год выпуска: 1971
Жанр: Драма, комедия
Режиссер: Стэнли Крамер

В ролях: Билл Мами, Бэрри Робинс, Майлс Чэпин, Дэрел Глэйзер, Боб Крамер, Марк Вахэниан, Джесси Уайт, Кен Суоффорд, Дэйв Кетчум, Элэйн Деври

Описание: Из летнего лагеря, под гнетом вожатых и других ребят, сбегает шестеро подростков. Желая хоть как-то противостоять несправедливости этого мира, они отправляются спасать стадо бизонов, выращенное специально для забавы охотников. Каждого тяготят свои личные семейные проблемы и комплексы, но цель есть цель и добиваться её надо в любом случае.



Страна: США
Продолжительность: 01:41:46
Перевод: Профессиональный (многоголосый закадровый)

Файл
Формат: MKV
Качество: WEB-DL 1080p
Видео: MPEG4 AVC Video, H264, 16:9, 1920x1080, 23.976 fps, 13.3 Mbps
Аудио#1: Russian (AC3, 2 ch, 192 kbps, 16 bits, 48.0 KHz) - MVO
Аудио#2: English (E-AC3, 2 ch, 224 kbps, 16 bits, 48.0 KHz) - Оригинал
Субтитры: Английские
Формат субтитров: Softsub (SRT)

General
Unique ID : 235802685710328098925685525935482639276 (0xB165F201A5DE43398DF1354AD25693AC)
Complete name : D:Bless.the.Beasts.and.Children.1971.AMZN.WEB-DL.1080p.mkv
Format : Matroska
Format version : Version 4 / Version 2
File size : 9.98 GiB
Duration : 1 h 41 min
Overall bit rate : 14.0 Mb/s
Encoded date : UTC 2019-08-05 11:24:43
Writing application : mkvmerge v6.1.0 ('Old Devil') built on Mar 2 2013 14:32:37
Writing library : libebml v1.3.0 + libmatroska v1.4.0

Video
ID : 1
Format : AVC
Format/Info : Advanced Video Codec
Format profile : High@L4
Format settings : CABAC / 4 Ref Frames
Format settings, CABAC : Yes
Format settings, ReFrames : 4 frames
Codec ID : V_MPEG4/ISO/AVC
Duration : 1 h 41 min
Bit rate : 13.3 Mb/s
Width : 1 920 pixels
Height : 1 080 pixels
Display aspect ratio : 16:9
Frame rate mode : Constant
Frame rate : 23.976 (24000/1001) FPS
Color space : YUV
Chroma subsampling : 4:2:0
Bit depth : 8 bits
Scan type : Progressive
Bits/(Pixel*Frame) : 0.268
Stream size : 9.49 GiB (95%)
Language : English
Default : Yes
Forced : No
Color range : Limited
Color primaries : BT.709
Transfer characteristics : BT.709
Matrix coefficients : BT.709

Audio #1
ID : 2
Format : AC-3
Format/Info : Audio Coding 3
Codec ID : A_AC3
Duration : 1 h 41 min
Bit rate mode : Constant
Bit rate : 192 kb/s
Channel(s) : 2 channels
Channel positions : Front: L R
Sampling rate : 48.0 kHz
Frame rate : 31.250 FPS (1536 SPF)
Bit depth : 16 bits
Compression mode : Lossy
Stream size : 140 MiB (1%)
Language : Russian
Service kind : Complete Main
Default : Yes
Forced : No

Audio #2
ID : 3
Format : E-AC-3
Format/Info : Enhanced Audio Coding 3
Codec ID : A_EAC3
Duration : 1 h 41 min
Bit rate mode : Constant
Bit rate : 224 kb/s
Channel(s) : 2 channels
Channel positions : Front: L R
Sampling rate : 48.0 kHz
Frame rate : 187.500 FPS (256 SPF)
Compression mode : Lossy
Stream size : 163 MiB (2%)
Language : English
Service kind : Complete Main
Default : No
Forced : No

Text
ID : 4
Format : UTF-8
Codec ID : S_TEXT/UTF8
Codec ID/Info : UTF-8 Plain Text
Language : English
Default : No
Forced : No



_________________
Проголосуй за трекер Открытый торрент трекер - RUS-MEDIA.ORG

Проголосуй Открытый торрент трекер - RUS-MEDIA.ORG


Вернуться к началу
 Профиль Отправить личное сообщение  
 
   Похожие торренты   Автор   Торрент   Размер 
В этой теме нет новых непрочитанных сообщений. Спаси и сохрани / Благослови дитя / Bless the Child [Ужасы, Триллер, Криминал, 2000] WEB-DL 1080p, Mvo

salma3

0 | 0

6.15 ГБ

В этой теме нет новых непрочитанных сообщений. Спаси и сохрани / Благослови дитя / Bless the Child [Ужасы, Триллер, Криминал, 2000] WEB-DLRip 720p, Mvo

salma3

0 | 0

3.41 ГБ

В этой теме нет новых непрочитанных сообщений. Костолом / Mean Machine [Драма, комедия, криминал, 2001] WEB-DL 1080p, Mvo

salma3

2 | 0

10.58 ГБ

В этой теме нет новых непрочитанных сообщений. Чокнутый / Delirious [Комедия, драма, мелодрама, 2006] WEB-DL 1080p, Mvo

salma3

0 | 0

7.92 ГБ

В этой теме нет новых непрочитанных сообщений. Да, возможно... / Definitely, Maybe [драма, мелодрама, комедия, 2008] WEB-DL 1080p, Mvo [Open Matte]

salma3

0 | 0

10.03 ГБ

В этой теме нет новых непрочитанных сообщений. Не бери в голову / Nevermind [Драма, комедия, 2018] WEB-DL 1080p, Mvo [iTunes]

salma3

0 | 0

4.32 ГБ

В этой теме нет новых непрочитанных сообщений. Взрослые игры / Flower [драма, комедия, 2017] WEB-DL 1080p, Mvo [iTunes]

salma3

30 | 7

5.09 ГБ


Начать новую тему Ответить на тему  [ 1 сообщение ] 




Для Мосгорсуда, Роскомнадзора и рекламодателей:: rstracker[собака]yandex.ru
cron