COVID-19 - Последняя информация о коронавирусе на сайте Минздрава




Торрент файл
скачать торрент магнет ссылка Добавлен: 07 авг 2019, 20:18
Размер: 4.48 ГБ
Сидеров: 1
Личеров: 2
Статус: (salma3)
Автор

СообщениеДобавлено: 07 авг 2019, 20:18 

Не в сети
Супермодератор
Аватара пользователя
Дата регистрации:
15 фев 2012, 16:44
Возраст: 31
Спасибо: 8273 / 2148
Сообщения: 96473
Год выхода: 2019
Жанр: Фантастика, боевик, приключения
Режиссер: Энтони Руссо, Джо Руссо

В ролях: Роберт Дауни мл. Крис Эванс, Марк Руффало, Крис Хемсворт, Скарлетт Йоханссон, Джереми Реннер, Дон Чидл, Пол Радд, Чедвик Боузман, Бри Ларсон

О фильме:
Оставшиеся в живых члены команды Мстителей и их союзники должны разработать новый план, который поможет противостоять разрушительным действиям могущественного титана Таноса. После наиболее масштабной и трагической битвы в истории они не могут допустить ошибку.



Страна: США
Продолжительность: 03:01:11
Перевод: Дублированный, профессиональный многоголосый

Файл
Кодек: HEVC(H.265)
Качество: BDRip-HEVC 720p
Видео: 1280x536, 2370 Кbps, 23.976 fps, 10 бит
Звук:
Аудио 1: AC3, 6 ch, 384 Kbps | Русский | Дублированный (iTunes)
Аудио 2: AC3, 2 ch, 256 Kbps | Русский | Профессиональный многоголосый (HDrezka Studio)
Аудио 3: AC3, 6 ch, 448 Kbps | Английский | Оригинал
Субтитры: Русские (форс., полные), английские (полные)

Общее
Уникальный идентификатор : 212387764760154022633866859431980572194 (0x9FC86545DD708CA3B546C182236A1E22)
Полное имя : Avengers.Endgame.2019.BDRip.10bit.720p.x265.HEVC.mkv
Формат : Matroska
Версия формата : Version 2
Размер файла : 4,48 Гбайт
Продолжительность : 3 ч. 1 м.
Общий поток : 3528 Кбит/сек
Название фильма : Мстители: Финал / Avengers: Endgame (2019)
Дата кодирования : UTC 2019-08-07 01:19:44
Программа кодирования : mkvmerge v7.8.0 ('River Man') 32bit built on Apr 3 2015 12:11:22
Библиотека кодирования : libebml v1.3.1 + libmatroska v1.4.2 / Lavf58.20.100
ENCODING_INFO : MATROSKA,WEBM > MKV 720p 10-bit

Видео
Идентификатор : 1
Формат : HEVC
Формат/Информация : High Efficiency Video Coding
Профиль формата : Main 10@L6@High
Идентификатор кодека : V_MPEGH/ISO/HEVC
Продолжительность : 3 ч. 1 м.
Битрейт : 2370 Кбит/сек
Ширина : 1280 пикселей
Высота : 536 пикселей
Соотношение сторон : 2,40:1
Режим частоты кадров : Постоянный
Частота кадров : 23,976 (24000/1001) кадра/сек
Цветовое пространство : YUV
Субдискретизация насыщенности : 4:2:0
Битовая глубина : 10 бит
Бит/(Пиксели*Кадры) : 0.144
Размер потока : 3,01 Гбайт (67%)
Библиотека кодирования : x265 3.1+4-4f6dde51a5db:[Windows][clang 8.0.0][64 bit] 10bit
Настройки программы : cpuid=1310959 / frame-threads=5 / numa-pools=4 / wpp / no-pmode / no-pme / no-psnr / no-ssim / log-level=3 / input-csp=1 / input-res=1280x536 / interlace=0 / total-frames=0 / level-idc=60 / high-tier=1 / uhd-bd=0 / ref=3 / allow-non-conformance / no-repeat-headers / annexb / no-aud / no-hrd / info / hash=0 / no-temporal-layers / open-gop / min-keyint=24 / keyint=240 / gop-lookahead=0 / bframes=4 / b-adapt=2 / b-pyramid / bframe-bias=0 / rc-lookahead=20 / lookahead-slices=0 / scenecut=40 / radl=0 / no-splice / no-intra-refresh / ctu=64 / min-cu-size=8 / no-rect / no-amp / max-tu-size=32 / tu-inter-depth=1 / tu-intra-depth=1 / limit-tu=0 / rdoq-level=0 / dynamic-rd=0.00 / no-ssim-rd / signhide / no-tskip / nr-intra=0 / nr-inter=0 / no-constrained-intra / strong-intra-smoothing / max-merge=3 / limit-refs=1 / no-limit-modes / me=1 / subme=2 / merange=57 / temporal-mvp / weightp / no-weightb / no-analyze-src-pics / deblock=-3:-3 / sao / no-sao-non-deblock / rd=3 / early-skip / rskip / no-fast-intra / no-tskip-fast / no-cu-lossless / b-intra / no-splitrd-skip / rdpenalty=0 / psy-rd=2.00 / psy-rdoq=0.00 / no-rd-refine / no-lossless / cbqpoffs=0 / crqpoffs=0 / rc=crf / crf=14.0 / qcomp=0.60 / qpstep=4 / stats-write=0 / stats-read=0 / vbv-maxrate=240000 / vbv-bufsize=240000 / vbv-init=0.9 / crf-max=30.0 / crf-min=0.0 / ipratio=1.40 / pbratio=1.30 / aq-mode=2 / aq-strength=1.00 / cutree / zone-count=0 / no-strict-cbr / qg-size=32 / no-rc-grain / qpmax=69 / qpmin=0 / no-const-vbv / sar=1 / overscan=0 / videoformat=5 / range=0 / colorprim=2 / transfer=2 / colormatrix=2 / chromaloc=0 / display-window=0cll=0,0 / min-luma=0 / max-luma=1023 / log2-max-poc-lsb=8 / vui-timing-info / vui-hrd-info / slices=1 / no-opt-qp-pps / no-opt-ref-list-length-pps / no-multi-pass-opt-rps / scenecut-bias=0.05 / no-opt-cu-delta-qp / no-aq-motion / no-hdr / no-hdr-opt / no-dhdr10-opt / no-idr-recovery-sei / analysis-reuse-level=5 / scale-factor=0 / refine-intra=0 / refine-inter=0 / refine-mv=0 / refine-ctu-distortion=0 / no-limit-sao / ctu-info=0 / no-lowpass-dct / refine-analysis-type=352336192 / copy-pic=1 / max-ausize-factor=1.0 / no-dynamic-refine / no-single-sei / no-hevc-aq / no-svt / no-field / qp-adaptation-range=1.00
Язык : English
Default : Да
Forced : Нет
ENCODING_INFO : H264 > X265 CRF 14.0 Medium

Аудио #1
Идентификатор : 2
Формат : AC-3
Формат/Информация : Audio Coding 3
Параметр Endianness формата : Big
Идентификатор кодека : A_AC3
Продолжительность : 3 ч. 1 м.
Вид битрейта : Постоянный
Битрейт : 384 Кбит/сек
Каналы : 6 каналов
Расположение каналов : Front: L C R, Side: L R, LFE
Частота : 48,0 КГц
Частота кадров : 31,250 кадров/сек (1536 SPF)
Битовая глубина : 16 бит
Метод сжатия : С потерями
Размер потока : 499 Мбайт (11%)
Заголовок : Дублированный (iTunes)
Язык : Russian
ServiceKind/Стринг : Complete Main
Default : Да
Forced : Нет
ENCODING_INFO : AC3 > COPY Безопасное

Аудио #2
Идентификатор : 3
Формат : AC-3
Формат/Информация : Audio Coding 3
Параметр Endianness формата : Big
Идентификатор кодека : A_AC3
Продолжительность : 3 ч. 1 м.
Вид битрейта : Постоянный
Битрейт : 256 Кбит/сек
Каналы : 2 канала
Расположение каналов : Front: L R
Частота : 48,0 КГц
Частота кадров : 31,250 кадров/сек (1536 SPF)
Битовая глубина : 16 бит
Метод сжатия : С потерями
Размер потока : 333 Мбайт (7%)
Заголовок : MVO [HDRezka Studio]
Язык : Russian
ServiceKind/Стринг : Complete Main
Default : Нет
Forced : Нет
ENCODING_INFO : AC3 > COPY Безопасное

Аудио #3
Идентификатор : 4
Формат : AC-3
Формат/Информация : Audio Coding 3
Параметр Endianness формата : Big
Идентификатор кодека : A_AC3
Продолжительность : 3 ч. 1 м.
Вид битрейта : Постоянный
Битрейт : 448 Кбит/сек
Каналы : 6 каналов
Расположение каналов : Front: L C R, Side: L R, LFE
Частота : 48,0 КГц
Частота кадров : 31,250 кадров/сек (1536 SPF)
Битовая глубина : 16 бит
Метод сжатия : С потерями
Размер потока : 582 Мбайт (13%)
Заголовок : Original
Язык : English
ServiceKind/Стринг : Complete Main
Default : Нет
Forced : Нет

Текст #1
Идентификатор : 5
Формат : UTF-8
Идентификатор кодека : S_TEXT/UTF8
Идентификатор кодека/Информация : UTF-8 Plain Text
Заголовок : Forced (iTunes)
Язык : Russian
Default : Да
Forced : Да
ENCODING_INFO : SUBRIP > COPY Быстрое

Текст #2
Идентификатор : 6
Формат : UTF-8
Идентификатор кодека : S_TEXT/UTF8
Идентификатор кодека/Информация : UTF-8 Plain Text
Заголовок : SDH (iTunes)
Язык : Russian
Default : Нет
Forced : Нет
ENCODING_INFO : SUBRIP > COPY Быстрое

Текст #3
Идентификатор : 7
Формат : UTF-8
Идентификатор кодека : S_TEXT/UTF8
Идентификатор кодека/Информация : UTF-8 Plain Text
Заголовок : Forced (Enigma)
Язык : Russian
Default : Нет
Forced : Нет
ENCODING_INFO : SUBRIP > COPY Быстрое

Текст #4
Идентификатор : 8
Формат : UTF-8
Идентификатор кодека : S_TEXT/UTF8
Идентификатор кодека/Информация : UTF-8 Plain Text
Заголовок : Full (Ruf)
Язык : Russian
Default : Нет
Forced : Нет
ENCODING_INFO : SUBRIP > COPY Быстрое

Текст #5
Идентификатор : 9
Формат : UTF-8
Идентификатор кодека : S_TEXT/UTF8
Идентификатор кодека/Информация : UTF-8 Plain Text
Заголовок : Full
Язык : English
Default : Нет
Forced : Нет
ENCODING_INFO : SUBRIP > COPY Быстрое

Текст #6
Идентификатор : 10
Формат : UTF-8
Идентификатор кодека : S_TEXT/UTF8
Идентификатор кодека/Информация : UTF-8 Plain Text
Заголовок : SDH
Язык : English
Default : Нет
Forced : Нет
ENCODING_INFO : SUBRIP > COPY Быстрое

Текст #7
Идентификатор : 11
Формат : UTF-8
Идентификатор кодека : S_TEXT/UTF8
Идентификатор кодека/Информация : UTF-8 Plain Text
Заголовок : SDH Colored
Язык : English
Default : Нет
Forced : Нет
ENCODING_INFO : SUBRIP > COPY Быстрое

Меню
00:00:00.000 : :00:00:00.000
00:08:05.902 : :00:08:05.902
00:20:01.700 : :00:20:01.700
00:26:15.282 : :00:26:15.282
00:36:57.173 : :00:36:57.173
00:43:20.598 : :00:43:20.598
00:48:44.171 : :00:48:44.171
00:57:36.745 : :00:57:36.745
01:07:12.612 : :01:07:12.612
01:16:02.516 : :01:16:02.516
01:26:25.430 : :01:26:25.430
01:32:20.118 : :01:32:20.118
01:38:55.805 : :01:38:55.805
01:48:12.361 : :01:48:12.361
01:57:26.915 : :01:57:26.915
02:05:00.243 : :02:05:00.243
02:15:06.432 : :02:15:06.432
02:25:50.450 : :02:25:50.450
02:34:37.935 : :02:34:37.935
02:43:03.899 : :02:43:03.899
02:49:05.344 : :02:49:05.344


_________________
Проголосуй за трекер Открытый торрент трекер - RUS-MEDIA.ORG

Проголосуй Открытый торрент трекер - RUS-MEDIA.ORG


Скачать книги и аудио книги через торрент


Вернуться к началу
 Профиль Отправить личное сообщение  
 
   Похожие торренты   Автор   Торрент   Размер 
В этой теме нет новых непрочитанных сообщений. Мстители: Финал / Avengers: Endgame [Фантастика, боевик, приключения, 2019] WEBRip-HEVC 720p, Dub [iTunes] [Open Matte] [Локализованная версия]

salma3

0 | 0

4.25 ГБ

В этой теме нет новых непрочитанных сообщений. Мстители: Финал / Avengers: Endgame [Фантастика, фэнтези, боевик, 2019] BDRip-HEVC 1080p, Dub [iTunes]

salma3

64 | 33

8.02 ГБ

В этой теме нет новых непрочитанных сообщений. Мстители: Финал / Avengers: Endgame [Фантастика, фэнтези, боевик, 2019] BDRip-HEVC 1080p, Dub [iTunes]

salma3

0 | 0

4.49 ГБ

В этой теме нет новых непрочитанных сообщений. Мстители: Финал / Avengers: Endgame [Фантастика, фэнтези, боевик, 2019] BDRip 720p, Dub [iTunes]

salma3

59 | 68

8.58 ГБ

В этой теме нет новых непрочитанных сообщений. Мстители: Финал / Avengers: Endgame [Фантастика, боевик, приключения, 2019] HybridRip 720p, Dub [iTunes] [Open Matte]

salma3

0 | 0

10.17 ГБ

В этой теме нет новых непрочитанных сообщений. Мстители: Финал / Avengers: Endgame [Фантастика, боевик, приключения, 2019] DVD9, Dub [iTunes]

salma3

0 | 0

7.61 ГБ

В этой теме нет новых непрочитанных сообщений. Мстители: Финал / Avengers: Endgame [Фантастика, боевик, приключения, 2019] 2xDVD5, Dub [iTunes] [Custom]

salma3

0 | 0

8.64 ГБ


Начать новую тему Ответить на тему  [ 1 сообщение ] 




Для Мосгорсуда, Роскомнадзора и рекламодателей:: rstracker[собака]yandex.ru
cron