COVID-19 - Последняя информация о коронавирусе на сайте Минздрава




Торрент файл
скачать торрент магнет ссылка Добавлен: 01 авг 2019, 20:19
Размер: 3.58 ГБ
Сидеров: 0
Личеров: 0
Статус: (salma3)
Автор

СообщениеДобавлено: 01 авг 2019, 20:19 

Не в сети
Супермодератор
Аватара пользователя
Дата регистрации:
15 фев 2012, 16:44
Возраст: 31
Спасибо: 8280 / 2148
Сообщения: 96711
Год выхода: 2003
Жанр: Фантастика, боевик, триллер
Режиссер: Лана Вачовски, Лилли Вачовски

В ролях: Киану Ривз, Хьюго Уивинг, Кэрри-Энн Мосс, Лоренс Фишбёрн, Хэролд Перрино, Джина Торрес, Джада Пинкетт Смит, Моника Беллуччи, Гарри Дж. Ленникс, Мэри Элис

О фильме:
Пока армия Машин пытается уничтожить Зион, его жители из последних сил держат оборону. Но удастся ли им предотвратить полное вторжение в город кишащей орды беспощадных машин до того, как Нео соберет все свои силы и положит конец войне?



Страна: США, Австралия
Продолжительность: 02:09:15
Перевод: Дубляж

Файл
Кодек: HEVC(H.265)
Качество: BDRip-HEVC 720p
Видео: 1280x530, 2986 Kbps, 23.976 fps, 10 бит
Аудио 1: AC3, 6 ch, 448 Kbps | Русский
Аудио 2: AC3, 6 ch, 448 Kbps | Английский
Субтитры: Русские, английские

Общее
Уникальный идентификатор : 241735185623816018194431430496853778755 (0xB5DC80D5ADF7FBBC89DFC386CF456143)
Полное имя : The.Matrix.Revolutions.2003.BDRip.10bit.720p.x265.HEVC.mkv
Формат : Matroska
Версия формата : Version 2
Размер файла : 3,58 Гбайт
Продолжительность : 2 ч. 9 м.
Общий поток : 3960 Кбит/сек
Название фильма : The Matrix: Revolutions (2003)
Дата кодирования : UTC 2019-08-01 08:13:18
Программа кодирования : mkvmerge v7.8.0 ('River Man') 32bit built on Apr 3 2015 12:11:22
Библиотека кодирования : libebml v1.3.1 + libmatroska v1.4.2 / Lavf58.20.100
ENCODING_INFO : MATROSKA,WEBM > MKV 720p 10-bit

Видео
Идентификатор : 1
Формат : HEVC
Формат/Информация : High Efficiency Video Coding
Профиль формата : Main 10@L4.1@High
Идентификатор кодека : V_MPEGH/ISO/HEVC
Продолжительность : 2 ч. 9 м.
Битрейт : 2986 Кбит/сек
Ширина : 1280 пикселей
Высота : 530 пикселей
Соотношение сторон : 2,40:1
Режим частоты кадров : Постоянный
Частота кадров : 23,976 (24000/1001) кадра/сек
Цветовое пространство : YUV
Субдискретизация насыщенности : 4:2:0
Битовая глубина : 10 бит
Бит/(Пиксели*Кадры) : 0.184
Размер потока : 2,70 Гбайт (75%)
Библиотека кодирования : x265 3.1+7-147fb92c5ed5:[Windows][clang 8.0.0][64 bit] 10bit
Настройки программы : cpuid=1310959 / frame-threads=5 / numa-pools=4 / wpp / no-pmode / no-pme / no-psnr / no-ssim / log-level=3 / input-csp=1 / input-res=1280x530 / interlace=0 / total-frames=0 / level-idc=41 / high-tier=1 / uhd-bd=0 / ref=3 / allow-non-conformance / no-repeat-headers / annexb / no-aud / no-hrd / info / hash=0 / no-temporal-layers / open-gop / min-keyint=24 / keyint=240 / gop-lookahead=0 / bframes=6 / b-adapt=2 / b-pyramid / bframe-bias=0 / rc-lookahead=20 / lookahead-slices=0 / scenecut=40 / radl=0 / no-splice / no-intra-refresh / ctu=64 / min-cu-size=8 / no-rect / no-amp / max-tu-size=32 / tu-inter-depth=1 / tu-intra-depth=1 / limit-tu=0 / rdoq-level=0 / dynamic-rd=0.00 / no-ssim-rd / signhide / no-tskip / nr-intra=0 / nr-inter=0 / no-constrained-intra / strong-intra-smoothing / max-merge=3 / limit-refs=1 / no-limit-modes / me=1 / subme=2 / merange=57 / temporal-mvp / no-hme / weightp / no-weightb / no-analyze-src-pics / deblock=-3:-3 / sao / no-sao-non-deblock / rd=3 / early-skip / rskip / no-fast-intra / no-tskip-fast / no-cu-lossless / b-intra / no-splitrd-skip / rdpenalty=0 / psy-rd=2.00 / psy-rdoq=0.00 / no-rd-refine / no-lossless / cbqpoffs=0 / crqpoffs=0 / rc=crf / crf=17.0 / qcomp=0.60 / qpstep=4 / stats-write=0 / stats-read=0 / vbv-maxrate=50000 / vbv-bufsize=50000 / vbv-init=0.9 / crf-max=30.0 / crf-min=0.0 / ipratio=1.40 / pbratio=1.30 / aq-mode=2 / aq-strength=1.00 / cutree / zone-count=0 / no-strict-cbr / qg-size=32 / no-rc-grain / qpmax=69 / qpmin=0 / no-const-vbv / sar=1 / overscan=0 / videoformat=5 / range=0 / colorprim=1 / transfer=1 / colormatrix=1 / chromaloc=0 / display-window=0cll=0,0 / min-luma=0 / max-luma=1023 / log2-max-poc-lsb=8 / vui-timing-info / vui-hrd-info / slices=1 / no-opt-qp-pps / no-opt-ref-list-length-pps / no-multi-pass-opt-rps / scenecut-bias=0.05 / no-opt-cu-delta-qp / no-aq-motion / no-hdr / no-hdr-opt / no-dhdr10-opt / no-idr-recovery-sei / analysis-reuse-level=5 / scale-factor=0 / refine-intra=0 / refine-inter=0 / refine-mv=0 / refine-ctu-distortion=0 / no-limit-sao / ctu-info=0 / no-lowpass-dct / refine-analysis-type=260287808 / copy-pic=1 / max-ausize-factor=1.0 / no-dynamic-refine / no-single-sei / no-hevc-aq / no-svt / no-field / qp-adaptation-range=1.00
Язык : English
Default : Да
Forced : Нет
Цветовой диапазон : Limited
Основные цвета : BT.709
Характеристики трансфера : BT.709
Коэффициенты матрицы : BT.709
ENCODING_INFO : VC1 > X265 CRF 17.0 Medium

Аудио #1
Идентификатор : 2
Формат : AC-3
Формат/Информация : Audio Coding 3
Параметр Endianness формата : Big
Идентификатор кодека : A_AC3
Продолжительность : 2 ч. 9 м.
Вид битрейта : Постоянный
Битрейт : 448 Кбит/сек
Каналы : 6 каналов
Расположение каналов : Front: L C R, Side: L R, LFE
Частота : 48,0 КГц
Частота кадров : 31,250 кадров/сек (1536 SPF)
Битовая глубина : 16 бит
Метод сжатия : С потерями
Размер потока : 414 Мбайт (11%)
Язык : Russian
ServiceKind: Complete Main
Default : Да
Forced : Нет
ENCODING_INFO : AC3 > AC3 CBR 448kbps

Аудио #2
Идентификатор : 3
Формат : AC-3
Формат/Информация : Audio Coding 3
Параметр Endianness формата : Big
Идентификатор кодека : A_AC3
Продолжительность : 2 ч. 9 м.
Вид битрейта : Постоянный
Битрейт : 448 Кбит/сек
Каналы : 6 каналов
Расположение каналов : Front: L C R, Side: L R, LFE
Частота : 48,0 КГц
Частота кадров : 31,250 кадров/сек (1536 SPF)
Битовая глубина : 16 бит
Метод сжатия : С потерями
Размер потока : 414 Мбайт (11%)
Язык : English
ServiceKind : Complete Main
Default : Нет
Forced : Нет
ENCODING_INFO : TRUEHD > AC3 CBR 448kbps

Текст #1
Идентификатор : 4
Формат : PGS
Режим смешивания : zlib
Идентификатор кодека : S_HDMV/PGS
Идентификатор кодека/Информация : Picture based subtitle format used on BDs/HD-DVDs
Язык : Russian
Default : Нет
Forced : Нет
ENCODING_INFO : HDMV_PGS_SUBTITLE > COPY Быстрое

Текст #2
Идентификатор : 5
Формат : PGS
Режим смешивания : zlib
Идентификатор кодека : S_HDMV/PGS
Идентификатор кодека/Информация : Picture based subtitle format used on BDs/HD-DVDs
Язык : English
Default : Да
Forced : Нет
ENCODING_INFO : HDMV_PGS_SUBTITLE > COPY Быстрое


_________________
Проголосуй за трекер Открытый торрент трекер - RUS-MEDIA.ORG

Проголосуй Открытый торрент трекер - RUS-MEDIA.ORG


Скачать книги и аудио книги через торрент


Вернуться к началу
 Профиль Отправить личное сообщение  
 
   Похожие торренты   Автор   Торрент   Размер 
В этой теме нет новых непрочитанных сообщений. Матрица: Революция / The Matrix Revolutions [Фантастика, боевик, триллер, 2003] HDTV 1080p, Dub [Open Matte]

salma3

0 | 0

6.37 ГБ

В этой теме нет новых непрочитанных сообщений. Матрица: Революция / The Matrix Revolutions [Фантастика, боевик, приключения, 2003] WEB-DLRip 720p, Dub [Open Matte]

salma3

0 | 0

5.05 ГБ

В этой теме нет новых непрочитанных сообщений. Матрица: Революция / The Matrix Revolutions [Фантастика, боевик, 2003] HDTVRip-AVC, Dub [Open Matte]

salma3

0 | 1

1.57 ГБ

В этой теме нет новых непрочитанных сообщений. Матрица: Перезагрузка / The Matrix Reloaded [Фантастика, Боевик, 2003] BDRip-HEVC 720p, Dub [Лицензия]

salma3

12 | 0

3.53 ГБ

В этой теме нет новых непрочитанных сообщений. Матрица / The Matrix [Фантастика, Боевик, 1999] BDRip-HEVC 720p, Dub [Лицензия]

salma3

8 | 1

3.33 ГБ

В этой теме нет новых непрочитанных сообщений. Матрица / The Matrix [Фантастика, боевик, приключения, 1999] BDRip-HEVC 2160p, Dub

salma3

0 | 0

51.66 ГБ

В этой теме нет новых непрочитанных сообщений. Матрица / The Matrix [Фантастика, боевик, 1999] BDRip-HEVC 1080p, Dub [Remastered] [60 fps]

salma3

0 | 0

10.82 ГБ


Начать новую тему Ответить на тему  [ 1 сообщение ] 




Для Мосгорсуда, Роскомнадзора и рекламодателей:: rstracker[собака]yandex.ru
cron