COVID-19 - Последняя информация о коронавирусе на сайте Минздрава




Торрент файл
скачать торрент магнет ссылка Добавлен: 26 июл 2019, 10:28
Размер: 20.16 ГБ
Сидеров: 0
Личеров: 0
Статус: (salma3)
Автор

СообщениеДобавлено: 26 июл 2019, 10:28 

Не в сети
Супермодератор
Аватара пользователя
Дата регистрации:
15 фев 2012, 16:44
Возраст: 32
Спасибо: 8298 / 2148
Сообщения: 97035
Год выхода: 2017
Жанр: ужасы, триллер, драма
Режиссер: Адам МакДональд

В ролях: Николь Муньос, Лори Холден, Хлоя Роуз, Эрик Осборн, Джеймс Макгоун, Мисси Перегрим, Виктория Санчес, Нил Уайтли, Ромео Каррере, Бьянка Мельхиор

О фильме:
После смерти главы семейства мать с дочерью-подростком Лиа не могут найти общий язык. Чтобы сбежать от реальности, девушка с друзьями увлеклась оккультизмом. Ее мать решает, что их семье нужно сменить обстановку, и они переезжают в одинокостоящий дом в лесу, далеко от друзей и школы Лиа. Отношения не налаживаются, и после очередной ссоры рассерженная девушка идет в лес и проводит обряд вызова духа, чтобы тот убил мать. На следующий день она жалеет о содеянном, но что-то из леса уже пробралось в их дом.



Страна: Канада
Продолжительность: 01:28:00
Перевод: Дублированный (iTunes), Профессиональный многоголосый (HDRezka Studio)

Файл
Качество: BDRemux 1080p | D, P | iTunes
Видео: AVC/H.264, 1920x1080, 29,4 Мbps, 23,976 fps
Звук:
Аудио 1: AC3, 6 ch, 384 Kbps - Русский (DUB)
Аудио 2: AC3, 2 ch, 192 Kbps - Русский (MVO HDRezka Studio)
Аудио 3: DTS-HD MA, 6 ch, 2856 Kbps - Английский
Субтитры: Английские (Full, SDH)

Общее
Уникальный идентификатор : 259296729124088632591447711785174889231 (0xC312BBC752A420527A02A0BC1FF6F30F)
Полное имя : Pyewacket.2017.REMUX.W.mkv
Формат : Matroska
Версия формата : Version 4
Размер файла : 20,2 Гбайт
Продолжительность : 1 ч. 28 м.
Режим общего битрейта : Переменный
Общий поток : 32,8 Мбит/сек
Название фильма : Pyewacket.2017.REMUX.W
Дата кодирования : UTC 2019-07-25 20:11:26
Программа кодирования : mkvmerge v23.0.0 ('The Bride Said No') 64-bit
Библиотека кодирования : libebml v1.3.6 + libmatroska v1.4.9

Видео
Идентификатор : 1
Формат : AVC
Формат/Информация : Advanced Video Codec
Профиль формата : High@L4.1
Настройки формата : CABAC / 4 Ref Frames
Параметр CABAC формата : Да
Параметр RefFrames формата : 4 кадра
Идентификатор кодека : V_MPEG4/ISO/AVC
Продолжительность : 1 ч. 27 м.
Вид битрейта : Переменный
Битрейт : 29,4 Мбит/сек
Максимальный битрейт : 34,0 Мбит/сек
Ширина : 1920 пикселей
Высота : 1080 пикселей
Соотношение сторон : 16:9
Режим частоты кадров : Постоянный
Частота кадров : 23,976 (24000/1001) кадра/сек
Цветовое пространство : YUV
Субдискретизация насыщенности : 4:2:0
Битовая глубина : 8 бит
Тип развёртки : Прогрессивная
Бит/(Пиксели*Кадры) : 0.591
Размер потока : 18,0 Гбайт (90%)
Заголовок : English
Язык : English
Default : Да
Forced : Нет

Аудио #1
Идентификатор : 2
Формат : AC-3
Формат/Информация : Audio Coding 3
Коммерческое название : Dolby Digital
Идентификатор кодека : A_AC3
Продолжительность : 1 ч. 27 м.
Вид битрейта : Постоянный
Битрейт : 384 Кбит/сек
Каналы : 6 каналов
ChannelLayout : L R C LFE Ls Rs
Частота : 48,0 КГц
Частота кадров : 31,250 кадров/сек (1536 SPF)
Битовая глубина : 16 бит
Метод сжатия : С потерями
Размер потока : 242 Мбайт (1%)
Заголовок : DUB (iTunes)
Язык : Russian
ServiceKind : Complete Main
Default : Да
Forced : Нет

Аудио #2
Идентификатор : 3
Формат : AC-3
Формат/Информация : Audio Coding 3
Коммерческое название : Dolby Digital
Идентификатор кодека : A_AC3
Продолжительность : 1 ч. 27 м.
Вид битрейта : Постоянный
Битрейт : 192 Кбит/сек
Каналы : 2 канала
ChannelLayout : L R
Частота : 48,0 КГц
Частота кадров : 31,250 кадров/сек (1536 SPF)
Битовая глубина : 16 бит
Метод сжатия : С потерями
Размер потока : 121 Мбайт (1%)
Заголовок : MVO (HDRezka Studio)
Язык : Russian
ServiceKind : Complete Main
Default : Нет
Forced : Нет

Аудио #3
Идентификатор : 4
Формат : DTS XLL
Формат/Информация : Digital Theater Systems
Коммерческое название : DTS-HD Master Audio
Идентификатор кодека : A_DTS
Продолжительность : 1 ч. 28 м.
Вид битрейта : Переменный
Битрейт : 2856 Кбит/сек
Каналы : 6 каналов
ChannelLayout : C L R Ls Rs LFE
Частота : 48,0 КГц
Частота кадров : 93,750 кадра/сек (512 SPF)
Битовая глубина : 24 бит
Метод сжатия : Без потерь
Размер потока : 1,76 Гбайт (9%)
Заголовок : English
Язык : English
Default : Нет
Forced : Нет

Текст #1
Идентификатор : 5
Формат : UTF-8
Идентификатор кодека : S_TEXT/UTF8
Идентификатор кодека/Информация : UTF-8 Plain Text
Продолжительность : 1 ч. 21 м.
Битрейт : 29 бит/сек
ElementCount : 543
Размер потока : 17,6 Кбайт (0%)
Заголовок : Full
Язык : English
Default : Нет
Forced : Нет

Текст #2
Идентификатор : 6
Формат : UTF-8
Идентификатор кодека : S_TEXT/UTF8
Идентификатор кодека/Информация : UTF-8 Plain Text
Продолжительность : 1 ч. 22 м.
Битрейт : 36 бит/сек
ElementCount : 706
Размер потока : 21,8 Кбайт (0%)
Заголовок : SDH
Язык : English
Default : Нет
Forced : Нет

Меню
00:00:00.000 : :00:00:00.000
00:08:49.821 : :00:08:49.821
00:17:22.250 : :00:17:22.250
00:22:17.002 : :00:22:17.002
00:30:53.685 : :00:30:53.685
00:38:00.153 : :00:38:00.153
00:47:19.128 : :00:47:19.128
00:56:49.323 : :00:56:49.323
01:04:30.825 : :01:04:30.825
01:10:41.863 : :01:10:41.863
01:19:20.965 : :01:19:20.965
01:22:29.820 : :01:22:29.820



_________________
Проголосуй за трекер Открытый торрент трекер - RUS-MEDIA.ORG

Проголосуй Открытый торрент трекер - RUS-MEDIA.ORG


Скачать книги и аудио книги через торрент


Вернуться к началу
 Профиль Отправить личное сообщение  
 
   Похожие торренты   Автор   Торрент   Размер 
В этой теме нет новых непрочитанных сообщений. Близкий дух / Pyewacket [Ужасы, триллер, 2017] BDRip-AVC, Dub [iTunes]

salma3

0 | 0

1.76 ГБ

В этой теме нет новых непрочитанных сообщений. Дух леса / Waldgeist [Триллер, 2017] WEBRip, Dvo

salma3

0 | 0

957.57 МБ

В этой теме нет новых непрочитанных сообщений. Дух леса / Waldgeist [Триллер, 2017] WEBRip 720p, Dvo

salma3

0 | 0

1.66 ГБ

В этой теме нет новых непрочитанных сообщений. Солнцестояние / Midsommar [Ужасы, триллер, драма, 2019] BDRemux 1080p, Dub [iTunes]

salma3

0 | 2

37.2 ГБ

В этой теме нет новых непрочитанных сообщений. В объятиях лжи / Greta [Ужасы, триллер, драма, 2018] BDRemux 1080p, Dub [iTunes]

salma3

0 | 0

25.22 ГБ

В этой теме нет новых непрочитанных сообщений. Мы / Us [Ужасы, триллер, 2019] BDRemux 1080p, Dub [iTunes]

salma3

0 | 2

27.13 ГБ

В этой теме нет новых непрочитанных сообщений. Пирсинг / Piercing [ужасы, триллер, 2018] BDRemux 1080p, Dub [iTunes]

salma3

0 | 0

15.41 ГБ


Начать новую тему Ответить на тему  [ 1 сообщение ] 




Для Мосгорсуда, Роскомнадзора и рекламодателей:: rstracker[собака]yandex.ru
cron