Торрент файл
скачать торрент магнет ссылка Добавлен: 25 июл 2019, 11:31
Размер: 5.27 ГБ
Сидеров: 0
Личеров: 0
Статус: (salma3)
Автор

СообщениеДобавлено: 25 июл 2019, 11:31 

Не в сети
Супермодератор
Аватара пользователя
Дата регистрации:
15 фев 2012, 16:44
Возраст: 32
Спасибо: 8321 / 2148
Сообщения: 97229
Год выхода: 1983
Жанр: ужасы
Режиссер: Пупи Авати

В ролях: Габриэль Лавиа, Анн Кановас, Чезаре Барбетти, Фердинандо Орланди, Джон Стэйси, Марчелло Туско

О фильме:
В 50-е годы ученый по имени Паоло Зедер исследовал геопатогенные зоны — трупы, захороненные в таких местах возвращались к жизни. Спустя несколько десятилетий пишущая машинка Зедера попала к молодому писателю, а тот сумел разобрать некоторые записи, сохранившиеся на ленте машинки.



Страна: Италия
Продолжительность: 01:39:32
Перевод: Авторский (одноголосый закадровый) Сергей Кузнецов

Файл
Качество: BDRip 720p
Видео: MPEG-4 AVC, 7000 Кбит/с, 1280x720
Звук: Русский (AC3, 1 ch, 128 Кбит/с), английский, итальянский (AC3, 2ch, 224 Кбит/с)
Субтитры: Английские

Релиз от GoldDust


General
Unique ID : 141899168543234473829773776836819457592 (0x6AC0C928C10601FD0FBB7C599C809638)
Complete name : G:ultimo_cordamZeder.1983.BDRip.720p.mkv
Format : Matroska
Format version : Version 4 / Version 2
File size : 5.27 GiB
Duration : 1 h 39 min
Overall bit rate : 7 582 kb/s
Movie name : Zeder AKA Revenge of the Dead 1983
Encoded date : UTC 2018-09-14 14:27:00
Writing application : mkvmerge v25.0.0 ('Prog Noir') 64-bit
Writing library : libebml v1.3.6 + libmatroska v1.4.9

Video
ID : 1
Format : AVC
Format/Info : Advanced Video Codec
Format profile : High@L4.1
Format settings : CABAC / 9 Ref Frames
Format settings, CABAC : Yes
Format settings, ReFrames : 9 frames
Codec ID : V_MPEG4/ISO/AVC
Duration : 1 h 39 min
Bit rate : 7 000 kb/s
Width : 1 280 pixels
Height : 720 pixels
Display aspect ratio : 16:9
Frame rate mode : Constant
Frame rate : 23.976 (24000/1001) FPS
Color space : YUV
Chroma subsampling : 4:2:0
Bit depth : 8 bits
Scan type : Progressive
Bits/(Pixel*Frame) : 0.317
Stream size : 4.87 GiB (92%)
Title : Zeder.AKA.Revenge.of.the.Dead.1983.BDRip.720p.x264-MM
Writing library : x264 core 146 r2538 121396c
Encoding settings : cabac=1 / ref=9 / deblock=1:-3:-3 / analyse=0x3:0x113 / me=umh / subme=11 / psy=1 / psy_rd=1.00:0.00 / mixed_ref=1 / me_range=48 / chroma_me=1 / trellis=2 / 8x8dct=1 / cqm=0 / deadzone=21,11 / fast_pskip=0 / chroma_qp_offset=-2 / threads=12 / lookahead_threads=3 / sliced_threads=0 / nr=0 / decimate=0 / interlaced=0 / bluray_compat=0 / constrained_intra=0 / bframes=12 / b_pyramid=2 / b_adapt=2 / b_bias=0 / direct=3 / weightb=1 / open_gop=1 / weightp=2 / keyint=250 / keyint_min=23 / scenecut=40 / intra_refresh=0 / rc_lookahead=60 / rc=2pass / mbtree=0 / bitrate=7000 / ratetol=1.0 / qcomp=0.60 / qpmin=0 / qpmax=69 / qpstep=4 / cplxblur=20.0 / qblur=0.5 / vbv_maxrate=50000 / vbv_bufsize=62500 / nal_hrd=none / filler=0 / ip_ratio=1.40 / pb_ratio=1.30 / aq=1:1.10
Language : English
Default : Yes
Forced : No

Audio #1
ID : 2
Format : AC-3
Format/Info : Audio Coding 3
Codec ID : A_AC3
Duration : 1 h 39 min
Bit rate mode : Constant
Bit rate : 128 kb/s
Channel(s) : 1 channel
Channel positions : Front: C
Sampling rate : 48.0 kHz
Frame rate : 31.250 FPS (1536 SPF)
Bit depth : 16 bits
Compression mode : Lossy
Stream size : 91.1 MiB (2%)
Title : AVO Сергей Кузнецов
Language : Russian
Service kind : Complete Main
Default : Yes
Forced : No

Audio #2
ID : 3
Format : AC-3
Format/Info : Audio Coding 3
Codec ID : A_AC3
Duration : 1 h 39 min
Bit rate mode : Constant
Bit rate : 224 kb/s
Channel(s) : 2 channels
Channel positions : Front: L R
Sampling rate : 48.0 kHz
Frame rate : 31.250 FPS (1536 SPF)
Bit depth : 16 bits
Compression mode : Lossy
Stream size : 159 MiB (3%)
Title : English
Language : English
Service kind : Complete Main
Default : No
Forced : No

Audio #3
ID : 4
Format : AC-3
Format/Info : Audio Coding 3
Codec ID : A_AC3
Duration : 1 h 39 min
Bit rate mode : Constant
Bit rate : 224 kb/s
Channel(s) : 2 channels
Channel positions : Front: L R
Sampling rate : 48.0 kHz
Frame rate : 31.250 FPS (1536 SPF)
Bit depth : 16 bits
Compression mode : Lossy
Stream size : 159 MiB (3%)
Title : Italian
Language : Italian
Service kind : Complete Main
Default : No
Forced : No

Text
ID : 5
Format : PGS
Muxing mode : zlib
Codec ID : S_HDMV/PGS
Codec ID/Info : Picture based subtitle format used on BDs/HD-DVDs
Duration : 1 h 37 min
Bit rate : 18.6 kb/s
Count of elements : 2610
Stream size : 13.0 MiB (0%)
Language : English
Default : Yes
Forced : No

Menu
00:00:00.000 : en:Chapter 1
00:03:39.928 : en:Chapter 2
00:11:06.082 : en:Chapter 3
00:20:48.664 : en:Chapter 4
00:26:18.285 : en:Chapter 5
00:31:30.388 : en:Chapter 6
00:37:56.607 : en:Chapter 7
00:45:09.289 : en:Chapter 8
00:50:05.002 : en:Chapter 9
00:57:40.665 : en:Chapter 10
01:04:57.560 : en:Chapter 11
01:09:22.324 : en:Chapter 12
01:14:48.567 : en:Chapter 13
01:19:01.987 : en:Chapter 14
01:23:55.572 : en:Chapter 15
01:30:36.806 : en:Chapter 16
01:37:49.530 : en:Chapter 17


_________________
Проголосуй за трекер Открытый торрент трекер - RUS-MEDIA.ORG

Проголосуй Открытый торрент трекер - RUS-MEDIA.ORG


Вернуться к началу
 Профиль Отправить личное сообщение  
 
   Похожие торренты   Автор   Торрент   Размер 
В этой теме нет новых непрочитанных сообщений. Оливия / Olivia [ужасы, криминал, триллер, 1983] BDRip 720p, Avo

salma3

0 | 0

3.45 ГБ

В этой теме нет новых непрочитанных сообщений. Микроволновая резня / Microwave Massacre [комедия, ужасы, 1983] BDRip 720p, Avo

NTL

0 | 0

5.73 ГБ

В этой теме нет новых непрочитанных сообщений. Добыча / The Prey [ужасы 1983] DVDRip, Avo

salma3

0 | 2

1.37 ГБ

В этой теме нет новых непрочитанных сообщений. Сокровища белой богини / Сокровища белой богини / El tesoro de la diosa blanca [боевик, приключения, ужасы, 1983] BDRip, Avo

salma3

0 | 0

1.45 ГБ

В этой теме нет новых непрочитанных сообщений. Потомок / Offspring [ужасы, 2009] BDRip 720p, Avo

salma3

0 | 5

4.74 ГБ

В этой теме нет новых непрочитанных сообщений. Псы / Dogs [ужасы, триллер, 1976] BDRip 720p, Avo

salma3

0 | 0

5.12 ГБ

В этой теме нет новых непрочитанных сообщений. Капкан / Crawl [Ужасы, триллер, драма, 2019] BDRip 720p, Avo

salma3

0 | 44

4.1 ГБ


Начать новую тему Ответить на тему  [ 1 сообщение ] 




Для Мосгорсуда, Роскомнадзора и рекламодателей:: rstracker[собака]yandex.ru
cron