COVID-19 - Последняя информация о коронавирусе на сайте Минздрава




Торрент файл
скачать торрент магнет ссылка Добавлен: 25 июл 2019, 11:24
Размер: 9.45 ГБ
Сидеров: 0
Личеров: 0
Статус: (salma3)
Автор

СообщениеДобавлено: 25 июл 2019, 11:24 

Не в сети
Супермодератор
Аватара пользователя
Дата регистрации:
15 фев 2012, 16:44
Возраст: 32
Спасибо: 8304 / 2148
Сообщения: 97126
Год выхода: 1977
Жанр: Триллер, приключения, драма
Режиссер: Уильям Фридкин

В ролях: Рой Шайдер, Бруно Кремер, Франсиско Рабаль, Амиду, Рамон Биери, Питер Кэпелл, Карл Джон, Фридрих фон Ледебур, Чико Мартинес, Джо Спинелл, Росарио Алмонтес, Ричард Холли, Анн-Мари Дешодт, Жан-Люк Бидо, Жак Франсуа, Андре Фалькон, Джерард Мёрфи, Десмонд Крофтон, Генри Даймонд, Рэй Диттрих, Фрэнк Джио, Рэнди Юргенсен, Космо Аллегретти, Ник Диченца, Фрэнк Пеше, Том Сигнорелли

О фильме:
Нефтяная компания ищет водителей, готовых перевезти на грузовике груз со взрывчаткой. А четверо мужчин не могут вернуться в родные страны и по разным причинам вынуждены скрываться в Латинской Америке. Им нечего терять, но в случае успешного завершения операции каждый получит по 10 тысяч долларов и гражданство. Их ждут 200 миль дороги, где за каждым поворотом подстерегает опасность



Страна: США
Продолжительность: 02:01:31
Перевод: Авторский, любительский одноголосый

Файл
Кодек: x.264
Качество: BDRip 1080p
Видео: MPEG-4 AVC, 1920x1080, ~8790 Kбит/с, 23.976 кадр/с
Звук:
Аудио #1: Русский ( АС3, 2ch, 192 Кбит/с, 48.0 KHz) Авторский (одноголосый, закадровый) Михаил Иванов
Аудио #2: Русский ( АС3, 6ch, 448 Кбит/с, 48.0 KHz) Авторский (одноголосый, закадровый) Алексей Матвеев
Аудио #3: Русский ( АС3, 2ch, 192 Кбит/с, 48.0 KHz) Любительский (одноголосый, закадровый) Юрий Максимов
Аудио #4: Английский ( DTS, 6ch, 1536 Кбит/с, 48.0 KHz)
Субтитры: русские, английские

Источник: Sorcerer.1977.1080p.BluRay.x264-HD4U
General
Unique ID : 240999406948073439044960888739576754532 (0xB54ECC252A1FC7FCB9C22E3EC9B53164)
Complete name : Sorcerer.1977.BDRip.1080p.mkv
Format : Matroska
Format version : Version 4 / Version 2
File size : 9.45 GiB
Duration : 2 h 1 min
Overall bit rate : 11.1 Mb/s
Movie name : Sorcerer.1977.1080p.BluRay.x264-HD4U
Encoded date : UTC 2018-05-03 11:29:49
Writing application : mkvmerge v7.1.0 ('Good Love') 64bit built on Jul 27 2014 13:06:55
Writing library : libebml v1.3.0 + libmatroska v1.4.1

Video
ID : 1
Format : AVC
Format/Info : Advanced Video Codec
Format profile : High@L4.1
Format settings : CABAC / 4 Ref Frames
Format settings, CABAC : Yes
Format settings, ReFrames : 4 frames
Codec ID : V_MPEG4/ISO/AVC
Duration : 2 h 1 min
Bit rate : 8 790 kb/s
Width : 1 920 pixels
Height : 1 080 pixels
Display aspect ratio : 16:9
Frame rate mode : Constant
Frame rate : 23.976 FPS
Color space : YUV
Chroma subsampling : 4:2:0
Bit depth : 8 bits
Scan type : Progressive
Bits/(Pixel*Frame) : 0.177
Stream size : 7.46 GiB (79%)
Writing library : x264 core 140 r2377 1ca7bb9
Encoding settings : cabac=1 / ref=4 / deblock=1:0:0 / analyse=0x3:0x133 / me=umh / subme=7 / psy=1 / psy_rd=1.00:0.00 / mixed_ref=1 / me_range=16 / chroma_me=1 / trellis=1 / 8x8dct=1 / cqm=0 / deadzone=21,11 / fast_pskip=0 / chroma_qp_offset=-2 / threads=18 / lookahead_threads=3 / sliced_threads=0 / nr=0 / decimate=1 / interlaced=0 / bluray_compat=0 / constrained_intra=0 / bframes=3 / b_pyramid=2 / b_adapt=1 / b_bias=0 / direct=1 / weightb=1 / open_gop=0 / weightp=2 / keyint=250 / keyint_min=23 / scenecut=40 / intra_refresh=0 / rc_lookahead=40 / rc=2pass / mbtree=1 / bitrate=8790 / ratetol=1.0 / qcomp=0.60 / qpmin=0 / qpmax=69 / qpstep=4 / cplxblur=20.0 / qblur=0.5 / ip_ratio=1.40 / aq=1:1.00
Language : English
Default : Yes
Forced : No

Audio #1
ID : 2
Format : AC-3
Format/Info : Audio Coding 3
Codec ID : A_AC3
Duration : 2 h 1 min
Bit rate mode : Constant
Bit rate : 192 kb/s
Channel(s) : 2 channels
Channel positions : Front: L R
Sampling rate : 48.0 kHz
Frame rate : 31.250 FPS (1536 SPF)
Bit depth : 16 bits
Compression mode : Lossy
Stream size : 167 MiB (2%)
Title : М.Иванов
Language : Russian
Service kind : Complete Main
Default : Yes
Forced : No

Audio #2
ID : 3
Format : AC-3
Format/Info : Audio Coding 3
Codec ID : A_AC3
Duration : 2 h 1 min
Bit rate mode : Constant
Bit rate : 448 kb/s
Channel(s) : 6 channels
Channel positions : Front: L C R, Side: L R, LFE
Sampling rate : 48.0 kHz
Frame rate : 31.250 FPS (1536 SPF)
Bit depth : 16 bits
Compression mode : Lossy
Stream size : 389 MiB (4%)
Title : А.Матвеев (Doctor Joker)
Language : Russian
Service kind : Complete Main
Default : No
Forced : No

Audio #3
ID : 4
Format : AC-3
Format/Info : Audio Coding 3
Codec ID : A_AC3
Duration : 2 h 1 min
Bit rate mode : Constant
Bit rate : 192 kb/s
Channel(s) : 2 channels
Channel positions : Front: L R
Sampling rate : 48.0 kHz
Frame rate : 31.250 FPS (1536 SPF)
Bit depth : 16 bits
Compression mode : Lossy
Stream size : 167 MiB (2%)
Title : Ю.Максимов
Language : Russian
Service kind : Complete Main
Default : No
Forced : No

Audio #4
ID : 5
Format : DTS
Format/Info : Digital Theater Systems
Codec ID : A_DTS
Duration : 2 h 1 min
Bit rate mode : Constant
Bit rate : 1 509 kb/s
Channel(s) : 6 channels
Channel positions : Front: L C R, Side: L R, LFE
Sampling rate : 48.0 kHz
Frame rate : 93.750 FPS (512 SPF)
Bit depth : 24 bits
Compression mode : Lossy
Stream size : 1.28 GiB (14%)
Language : English
Default : No
Forced : No

Text #1
ID : 6
Format : UTF-8
Codec ID : S_TEXT/UTF8
Codec ID/Info : UTF-8 Plain Text
Duration : 1 h 58 min
Bit rate : 35 b/s
Count of elements : 551
Stream size : 30.9 KiB (0%)
Language : Russian
Default : No
Forced : No

Text #2
ID : 7
Format : UTF-8
Codec ID : S_TEXT/UTF8
Codec ID/Info : UTF-8 Plain Text
Duration : 1 h 40 min
Bit rate : 17 b/s
Count of elements : 427
Stream size : 13.0 KiB (0%)
Language : English
Default : No
Forced : No

Text #3
ID : 8
Format : UTF-8
Codec ID : S_TEXT/UTF8
Codec ID/Info : UTF-8 Plain Text
Duration : 2 h 0 min
Bit rate : 19 b/s
Count of elements : 618
Stream size : 17.2 KiB (0%)
Title : SDH
Language : English
Default : No
Forced : No

Menu
00:00:00.000 : en:00:00:00.000
00:01:29.798 : en:00:01:29.798
00:06:37.480 : en:00:06:37.480
00:16:12.930 : en:00:16:12.930
00:24:14.078 : en:00:24:14.078
00:40:14.370 : en:00:40:14.370
00:47:30.431 : en:00:47:30.431
00:52:00.993 : en:00:52:00.993
00:55:00.380 : en:00:55:00.380
01:03:27.095 : en:01:03:27.095
01:08:41.951 : en:01:08:41.951
01:15:46.834 : en:01:15:46.834
01:26:33.688 : en:01:26:33.688
01:41:17.989 : en:01:41:17.989
01:43:30.121 : en:01:43:30.121
01:47:16.138 : en:01:47:16.138
01:54:05.922 : en:01:54:05.922
01:58:32.105 : en:01:58:32.105


_________________
Проголосуй за трекер Открытый торрент трекер - RUS-MEDIA.ORG

Проголосуй Открытый торрент трекер - RUS-MEDIA.ORG


Скачать книги и аудио книги через торрент


Вернуться к началу
 Профиль Отправить личное сообщение  
 
   Похожие торренты   Автор   Торрент   Размер 
В этой теме нет новых непрочитанных сообщений. Колдун / Sorcerer [триллер, драма, приключения, 1977] BDRemux 1080р, Avo

salma3

0 | 0

32.27 ГБ

В этой теме нет новых непрочитанных сообщений. Ритуалы / Rituals [приключения, ужасы, триллер, 1977] DVDRip, Avo

salma3

1 | 0

1.46 ГБ

В этой теме нет новых непрочитанных сообщений. Билитис / Bilitis [драма, мелодрама, 1977] BDRip, Avo

salma3

2 | 0

1.46 ГБ

В этой теме нет новых непрочитанных сообщений. Ифигения / Ifigeneia [драма, 1977] BDRip 720p, Avo

salma3

0 | 0

5.78 ГБ

В этой теме нет новых непрочитанных сообщений. Горы Хаккода / Hakkodasan [Драма, военный, 1977] BDRip, Avo

salma3

0 | 0

3.27 ГБ

В этой теме нет новых непрочитанных сообщений. Тигр нападает снова / Bei po [Боевик, драма, 1977] BDRip 1080, Avo

salma3

0 | 0

4.11 ГБ

В этой теме нет новых непрочитанных сообщений. Суспирия / Suspiria [Ужасы, мистика, драма, 1977] BDRip 1080p, Mvo

salma3

0 | 0

10.62 ГБ


Начать новую тему Ответить на тему  [ 1 сообщение ] 




Для Мосгорсуда, Роскомнадзора и рекламодателей:: rstracker[собака]yandex.ru
cron