Торрент файл
скачать торрент магнет ссылка Добавлен: 24 июл 2019, 22:04
Размер: 16.68 ГБ
Сидеров: 0
Личеров: 0
Статус: (salma3)
Автор

СообщениеДобавлено: 24 июл 2019, 22:04 

Не в сети
Супермодератор
Аватара пользователя
Дата регистрации:
15 фев 2012, 16:44
Возраст: 30
Спасибо: 8183 / 2148
Сообщения: 95682
Год выхода: 1995
Жанр: фантастика, боевик, приключения
Режиссер: Кевин Рейнольдс

В ролях: Кевин Костнер, Деннис Хоппер, Джинн Трипплхорн, Тина Мажорино, Майкл Джитер, Джек Блэк, Ким Коутс, Чайм Джирафи, Рик Авилес, Р.Д. Колл

О фильме:
В далеком будущем полярные снега растаяли, покрыв всю Землю водой. Авторы погружают нас в фантастический мир немногочисленных людей, живущих на воде, где самым дорогим являются пресная вода, земля, еда, сигареты и т. п. «Курильщики» убивают, грабят, обращают в рабство — используют двигатели внутреннего сгорания. Все остальные пытаются выжить, кто как может, а Кевин Костнер плавает сам по себе на своей фантастической лодке, но объединяет их всех одно — все они ищут остров. В одной из колоний живут очень красивая женщина и девочка с татуировкой на спине. А татуировка эта — часть карты, на которой и указан этот остров. Естественно, за ней и охотятся «курильщики»…



Страна: США
Продолжительность: 02:15:09
Перевод: Профессиональный многоголосый, профессиональный двухголосый, авторский
Субтитры: Русские, английские
Навигация по главам: Есть

Файл
Качество: UHD BDRip 1080p
Формат: Matroska
Видео: MPEG-4 AVC, 1920х1038, 14.5 Mbps, 23.976 fps
Аудио #1: AC3, 6 ch, 384 kbps | Russian | MVO Киномания
Аудио #1: AC3, 6 ch, 448 kbps | Russian | MVO ОРТ
Аудио #1: AC3, 6 ch, 448 kbps | Russian | DVO Премьер Видео Фильм
Аудио #1: AC3, 6 ch, 640 kbps | Russian | AVO А. Гаврилов
Аудио #1: AC3, 6 ch, 640 kbps | Russian | AVO Д. Пучков
Аудио #2: AC3, 6 ch, 640 kbps | English
Формат субтитров: softsub (SRT)

Семпл

General
Unique ID : 308618086007022329686367041713744842495 (0xE82DAE6B1F07B5A17CF4175FCD1B0EFF)
Complete name : Waterworld (1995) UHD BDRip 1080p.mkv
Format : Matroska
Format version : Version 4
File size : 16.7 GiB
Duration : 2 h 15 min
Overall bit rate : 17.7 Mb/s
Movie name : Waterworld (1995)
Encoded date : UTC 2019-07-23 07:45:26
Writing application : mkvmerge v35.0.0 ('All The Love In The World') 64-bit
Writing library : libebml v1.3.9 + libmatroska v1.5.2
Attachments : poster.jpg

Video
ID : 1
Format : AVC
Format/Info : Advanced Video Codec
Format profile : High@L4.1
Format settings : CABAC / 4 Ref Frames
Format settings, CABAC : Yes
Format settings, Reference : 4 frames
Codec ID : V_MPEG4/ISO/AVC
Duration : 2 h 15 min
Bit rate : 14.5 Mb/s
Width : 1 920 pixels
Height : 1 038 pixels
Display aspect ratio : 1.85:1
Frame rate mode : Constant
Frame rate : 23.976 (24000/1001) FPS
Color space : YUV
Chroma subsampling : 4:2:0
Bit depth : 8 bits
Scan type : Progressive
Bits/(Pixel*Frame) : 0.303
Stream size : 13.7 GiB (82%)
Writing library : x264 core 158 r2984+1 57333a4
Encoding settings : cabac=1 / ref=4 / deblock=1:-3:-3 / analyse=0x3:0x133 / me=umh / subme=11 / psy=1 / psy_rd=1.00:0.00 / mixed_ref=1 / me_range=32 / chroma_me=1 / trellis=2 / 8x8dct=1 / cqm=0 / deadzone=21,11 / fast_pskip=0 / chroma_qp_offset=-2 / threads=18 / lookahead_threads=4 / sliced_threads=0 / nr=0 / decimate=0 / interlaced=0 / bluray_compat=0 / constrained_intra=0 / bframes=10 / b_pyramid=2 / b_adapt=2 / b_bias=0 / direct=3 / weightb=1 / open_gop=0 / weightp=2 / keyint=240 / keyint_min=23 / scenecut=40 / intra_refresh=0 / rc_lookahead=60 / rc=2pass / mbtree=0 / bitrate=14500 / ratetol=1.0 / qcomp=0.60 / qpmin=0 / qpmax=69 / qpstep=4 / cplxblur=20.0 / qblur=0.5 / vbv_maxrate=50000 / vbv_bufsize=62500 / nal_hrd=none / filler=0 / ip_ratio=1.40 / pb_ratio=1.30 / aq=3:0.70
Language : English
Default : Yes
Forced : No
Color range : Limited
Color primaries : BT.709
Transfer characteristics : BT.709
Matrix coefficients : BT.709

Audio #1
ID : 2
Format : AC-3
Format/Info : Audio Coding 3
Commercial name : Dolby Digital
Codec ID : A_AC3
Duration : 2 h 15 min
Bit rate mode : Constant
Bit rate : 384 kb/s
Channel(s) : 6 channels
Channel layout : L R C LFE Ls Rs
Sampling rate : 48.0 kHz
Frame rate : 31.250 FPS (1536 SPF)
Bit depth : 16 bits
Compression mode : Lossy
Stream size : 371 MiB (2%)
Title : Киномания
Language : Russian
Service kind : Complete Main
Default : Yes
Forced : No

Audio #2
ID : 3
Format : AC-3
Format/Info : Audio Coding 3
Commercial name : Dolby Digital
Codec ID : A_AC3
Duration : 2 h 15 min
Bit rate mode : Constant
Bit rate : 448 kb/s
Channel(s) : 6 channels
Channel layout : L R C LFE Ls Rs
Sampling rate : 48.0 kHz
Frame rate : 31.250 FPS (1536 SPF)
Bit depth : 16 bits
Compression mode : Lossy
Stream size : 433 MiB (3%)
Title : ОРТ
Language : Russian
Service kind : Complete Main
Default : No
Forced : No

Audio #3
ID : 4
Format : AC-3
Format/Info : Audio Coding 3
Commercial name : Dolby Digital
Codec ID : A_AC3
Duration : 2 h 15 min
Bit rate mode : Constant
Bit rate : 448 kb/s
Channel(s) : 6 channels
Channel layout : L R C LFE Ls Rs
Sampling rate : 48.0 kHz
Frame rate : 31.250 FPS (1536 SPF)
Bit depth : 16 bits
Compression mode : Lossy
Stream size : 433 MiB (3%)
Title : Премьер Видео Фильм
Language : Russian
Service kind : Complete Main
Default : No
Forced : No

Audio #4
ID : 5
Format : AC-3
Format/Info : Audio Coding 3
Commercial name : Dolby Digital
Codec ID : A_AC3
Duration : 2 h 15 min
Bit rate mode : Constant
Bit rate : 640 kb/s
Channel(s) : 6 channels
Channel layout : L R C LFE Ls Rs
Sampling rate : 48.0 kHz
Frame rate : 31.250 FPS (1536 SPF)
Bit depth : 16 bits
Compression mode : Lossy
Stream size : 619 MiB (4%)
Title : А. Гаврилов
Language : Russian
Service kind : Complete Main
Default : No
Forced : No

Audio #5
ID : 6
Format : AC-3
Format/Info : Audio Coding 3
Commercial name : Dolby Digital
Codec ID : A_AC3
Duration : 2 h 15 min
Bit rate mode : Constant
Bit rate : 640 kb/s
Channel(s) : 6 channels
Channel layout : L R C LFE Ls Rs
Sampling rate : 48.0 kHz
Frame rate : 31.250 FPS (1536 SPF)
Bit depth : 16 bits
Compression mode : Lossy
Stream size : 619 MiB (4%)
Title : Д. Пучков
Language : Russian
Service kind : Complete Main
Default : No
Forced : No

Audio #6
ID : 7
Format : AC-3
Format/Info : Audio Coding 3
Commercial name : Dolby Digital
Codec ID : A_AC3
Duration : 2 h 15 min
Bit rate mode : Constant
Bit rate : 640 kb/s
Channel(s) : 6 channels
Channel layout : L R C LFE Ls Rs
Sampling rate : 48.0 kHz
Frame rate : 31.250 FPS (1536 SPF)
Bit depth : 16 bits
Compression mode : Lossy
Stream size : 619 MiB (4%)
Title : Original
Language : English
Service kind : Complete Main
Default : No
Forced : No

Text #1
ID : 8
Format : UTF-8
Codec ID : S_TEXT/UTF8
Codec ID/Info : UTF-8 Plain Text
Duration : 41 min 19 s
Bit rate : 0 b/s
Count of elements : 7
Stream size : 228 Bytes (0%)
Title : Forced
Language : Russian
Default : Yes
Forced : Yes

Text #2
ID : 9
Format : UTF-8
Codec ID : S_TEXT/UTF8
Codec ID/Info : UTF-8 Plain Text
Duration : 2 h 3 min
Bit rate : 52 b/s
Count of elements : 1026
Stream size : 47.9 KiB (0%)
Title : Full
Language : Russian
Default : No
Forced : No

Text #3
ID : 10
Format : UTF-8
Codec ID : S_TEXT/UTF8
Codec ID/Info : UTF-8 Plain Text
Duration : 2 h 8 min
Bit rate : 52 b/s
Count of elements : 1001
Stream size : 49.8 KiB (0%)
Title : Full Пучков
Language : Russian
Default : No
Forced : No

Text #4
ID : 11
Format : UTF-8
Codec ID : S_TEXT/UTF8
Codec ID/Info : UTF-8 Plain Text
Duration : 2 h 3 min
Bit rate : 35 b/s
Count of elements : 1041
Stream size : 31.9 KiB (0%)
Title : Full
Language : English
Default : No
Forced : No

Menu
00:00:00.000 : en:Main Title; The New World
00:06:28.847 : en:Smokers!
00:09:55.887 : en:A Stranger in Town
00:25:33.699 : en:Dead Out of the Sun
00:53:20.572 : en:Smokers in the Sky
00:59:36.782 : en:Rough Trade
01:15:04.125 : en:The Barter Outpost
01:21:22.461 : en:Down to Dryland
01:25:18.071 : en:Going Under
01:39:30.089 : en:The Coming of the Marine
01:43:48.431 : en:No Mercy
01:49:07.875 : en:Smoke on the Water
01:55:18.370 : en:The Death of "the Deez"
01:57:06.228 : en:The Deacon's Last Shot
01:59:39.964 : en:Home
02:06:31.375 : en:End Titles



x264 [info]: frame I:1132 Avg QP:19.33 size:227708
x264 [info]: frame P:49039 Avg QP:21.98 size:121333
x264 [info]: frame B:144264 Avg QP:24.05 size: 58640
x264 [info]: consecutive B-frames: 2.7% 5.0% 12.2% 31.1% 23.0% 21.1% 3.0% 0.4% 0.5% 0.7% 0.3%
x264 [info]: mb I I16..4: 1.8% 91.5% 6.8%
x264 [info]: mb P I16..4: 0.2% 18.3% 1.0% P16..4: 27.3% 38.6% 12.5% 1.3% 0.1% skip: 0.7%
x264 [info]: mb B I16..4: 0.0% 1.8% 0.1% B16..8: 49.2% 24.3% 4.4% direct: 8.4% skip:11.8% L0:47.0% L1:44.6% BI: 8.4%
x264 [info]: 8x8 transform intra:93.5% inter:64.7%
x264 [info]: direct mvs spatial:98.3% temporal:1.7%
x264 [info]: coded y,uvDC,uvAC intra: 98.0% 78.7% 39.7% inter: 56.2% 26.3% 5.1%
x264 [info]: i16 v,h,dc,p: 12% 19% 3% 66%
x264 [info]: i8 v,h,dc,ddl,ddr,vr,hd,vl,hu: 5% 7% 3% 11% 17% 14% 17% 11% 14%
x264 [info]: i4 v,h,dc,ddl,ddr,vr,hd,vl,hu: 5% 6% 1% 9% 18% 16% 19% 11% 14%
x264 [info]: i8c dc,h,v,p: 36% 27% 17% 20%
x264 [info]: Weighted P-Frames: Y:2.8% UV:0.9%
x264 [info]: ref P L0: 49.0% 12.2% 25.9% 12.1% 0.8% 0.0%
x264 [info]: ref B L0: 83.0% 13.8% 3.2%
x264 [info]: ref B L1: 95.0% 5.0%
x264 [info]: kb/s:14469.23
vs Ремастер BD 1080p vs UHD BDRip 1080p









_________________
Проголосуй за трекер Открытый торрент трекер - RUS-MEDIA.ORG

Проголосуй Открытый торрент трекер - RUS-MEDIA.ORG


Скачать книги и аудио книги через торрент


Вернуться к началу
 Профиль Отправить личное сообщение  
 
   Похожие торренты   Автор   Торрент   Размер 
В этой теме нет новых непрочитанных сообщений. Водный мир / Waterworld [Фантастика, боевик, приключения, 1995] BDRip 720p, Dub [Theatrical Cut | Remastered]

salma3

0 | 0

14.71 ГБ

В этой теме нет новых непрочитанных сообщений. Водный мир / Waterworld [Фантастика, боевик, приключения, 1995] BDRip-HEVC 1080p, Mvo [The Ulysses Cut]

salma3

0 | 0

18.07 ГБ

В этой теме нет новых непрочитанных сообщений. Водный мир / Waterworld [фантастика, боевик, приключения, 1995] BDRip 1080р, Mvo [The Ulysses Cut]

salma3

0 | 0

18.15 ГБ

В этой теме нет новых непрочитанных сообщений. Водный мир / Waterworld [боевик, приключения, фантастика, 1995] BDRemux 1080p, Mvo [The Ulysses Cut]

salma3

0 | 0

62.16 ГБ

В этой теме нет новых непрочитанных сообщений. Водный мир / Waterworld [боевик, приключения, фантастика, 1995] UHD Blu-Ray EUR 2160p, Mvo [4K] [Лицензия]

salma3

0 | 0

82.84 ГБ

В этой теме нет новых непрочитанных сообщений. Водный мир / Waterworld [боевик, приключения, фантастика, 1995] BDRemux 1080р, Mvo [The Ulysses Cut]

salma3

0 | 0

60.55 ГБ

В этой теме нет новых непрочитанных сообщений. Водный мир / Waterworld [фантастика, боевик, приключения, 1995] BDRip, Dub [Театральная версия]

salma3

0 | 0

1.46 ГБ


Начать новую тему Ответить на тему  [ 1 сообщение ] 




Для Мосгорсуда, Роскомнадзора и рекламодателей:: mosgorsud-torrent[собачка]yandex.ru
cron