COVID-19 - Последняя информация о коронавирусе на сайте Минздрава




Торрент файл
скачать торрент магнет ссылка Добавлен: 20 июл 2019, 10:28
Размер: 3.4 ГБ
Сидеров: 0
Личеров: 0
Статус: (salma3)
Автор

СообщениеДобавлено: 20 июл 2019, 10:28 

Не в сети
Супермодератор
Аватара пользователя
Дата регистрации:
15 фев 2012, 16:44
Возраст: 31
Спасибо: 8280 / 2148
Сообщения: 96711
Год выхода: 2010
Производство: США / Paramount Pictures, Marvel Studios Inc.
Жанр: Фантастика, боевик, приключения
Продолжительность: 02:04:34
Режиссер: Джон Фавро

В ролях: Роберт Дауни мл., Гвинет Пэлтроу, Дон Чидл, Скарлетт Йоханссон, Сэм Рокуэлл, Микки Рурк, Сэмюэл Л. Джексон, Кларк Грегг, Джон Слэттери, Гарри Шендлинг

Описание: Прошло полгода с тех пор, как мир узнал, что миллиардер-изобретатель Тони Старк является обладателем уникальной кибер-брони Железного человека. Общественность требует, чтобы Старк передал технологию брони правительству США, но Тони не хочет разглашать её секреты, потому что боится, что она попадёт не в те руки. Между тем Иван Ванко — сын русского учёного, когда-то работавшего на фирму Старка, но потом уволенного и лишенного всего, намерен отомстить Тони за беды своей семьи. Для чего сооружает своё высокотехнологичное оружие.

Качество: BDRip-HEVC 720p
Видео: HEVC/H.265, 1280x544, ~3011 Kbps, 10 bit
Аудио 01: AC3, 6 ch, 448 Kbps | Русский, Дублированный
Аудио 02: AC3, 6 ch, 448 Kbps | Английский, Оригинал
Субтитры: Русские (форсированные, полные), английские (полные)



x265 info: frame I: 1993, Avg QP:17.11 kb/s: 10938.61
x265 info: frame P: 33861, Avg QP:18.58 kb/s: 5527.04
x265 info: frame B: 143466, Avg QP:21.03 kb/s: 2305.51
x265 info: Weighted P-Frames: Y:8.3% UV:6.7%
x265 info: consecutive B-frames: 12.4% 4.5% 7.4% 29.4% 9.7% 15.3% 5.5% 5.7% 2.8% 2.4% 1.2% 1.3% 0.7% 0.6% 0.5% 0.4% 0.4%
x265 info:
encoded 179320 frames in 156775.85s (1.14 fps), 3009.78 kb/s, Avg QP:20.52

Формат : Matroska
Версия формата : Version 4
Размер файла : 3,40 Гбайт
Продолжительность : 2 ч. 4 м.
Общий поток : 3909 Кбит/сек
Название фильма : Железный человек 2 (2010) Encoded_by_M@kSIMus
Дата кодирования : UTC 2019-07-20 04:36:53
Программа кодирования : mkvmerge v30.1.0 ('Forever And More') 64-bit
Библиотека кодирования : libebml v1.3.6 + libmatroska v1.4.9
Обложка : Yes
Attachments : cover3.jpg

Видео
Идентификатор : 1
Формат : HEVC
Формат/Информация : High Efficiency Video Coding
Идентификатор кодека : V_MPEGH/ISO/HEVC
Продолжительность : 2 ч. 4 м.
Битрейт : 3011 Кбит/сек
Ширина : 1280 пикселей
Высота : 544 пикселя
Соотношение сторон : 2,35:1
Режим частоты кадров : Постоянный
Частота кадров : 23,976 (24000/1001) кадра/сек
Цветовое пространство : YUV
Субдискретизация насыщенности : 4:2:0
Битовая глубина : 10 бит
Бит/(Пиксели*Кадры) : 0.180
Размер потока : 2,62 Гбайт (77%)
Библиотека кодирования : x265 2.9+9-f74003e88622:[Windows][GCC 8.2.0][64 bit] 10bit
Настройки программы : cpuid=1049583 / frame-threads=5 / numa-pools=4 / wpp / no-pmode / no-pme / no-psnr / no-ssim / log-level=3 / input-csp=1 / input-res=1280x544 / interlace=0 / total-frames=0 / level-idc=41 / high-tier=1 / uhd-bd=0 / ref=7 / allow-non-conformance / no-repeat-headers / annexb / no-aud / no-hrd / info / hash=0 / no-temporal-layers / open-gop / min-keyint=24 / keyint=240 / gop-lookahead=0 / bframes=16 / b-adapt=2 / b-pyramid / bframe-bias=0 / rc-lookahead=40 / lookahead-slices=0 / scenecut=40 / radl=0 / no-intra-refresh / ctu=32 / min-cu-size=8 / no-rect / no-amp / max-tu-size=32 / tu-inter-depth=4 / tu-intra-depth=4 / limit-tu=1 / rdoq-level=0 / dynamic-rd=0.00 / no-ssim-rd / signhide / no-tskip / nr-intra=0 / nr-inter=0 / no-constrained-intra / no-strong-intra-smoothing / max-merge=5 / limit-refs=3 / no-limit-modes / me=3 / subme=7 / merange=57 / temporal-mvp / weightp / no-weightb / no-analyze-src-pics / deblock=-3:-3 / no-sao / no-sao-non-deblock / rd=6 / no-early-skip / no-rskip / no-fast-intra / no-tskip-fast / no-cu-lossless / no-b-intra / no-splitrd-skip / rdpenalty=0 / psy-rd=2.00 / psy-rdoq=0.00 / no-rd-refine / no-lossless / cbqpoffs=0 / crqpoffs=0 / rc=crf / crf=20.0 / qcomp=0.60 / qpstep=4 / stats-write=0 / stats-read=0 / vbv-maxrate=50000 / vbv-bufsize=50000 / vbv-init=0.9 / crf-max=0.0 / crf-min=0.0 / ipratio=1.40 / pbratio=1.30 / aq-mode=3 / aq-strength=1.00 / no-cutree / zone-count=0 / no-strict-cbr / qg-size=32 / no-rc-grain / qpmax=69 / qpmin=0 / no-const-vbv / sar=1 / overscan=0 / videoformat=5 / range=0 / colorprim=1 / transfer=1 / colormatrix=1 / chromaloc=0 / display-window=0 / max-cll=0,0 / min-luma=0 / max-luma=1023 / log2-max-poc-lsb=8 / vui-timing-info / vui-hrd-info / slices=1 / no-opt-qp-pps / no-opt-ref-list-length-pps / no-multi-pass-opt-rps / scenecut-bias=0.05 / no-opt-cu-delta-qp / no-aq-motion / no-hdr / no-hdr-opt / no-dhdr10-opt / no-idr-recovery-sei / analysis-reuse-level=5 / scale-factor=0 / refine-intra=0 / refine-inter=0 / refine-mv=0 / no-limit-sao / ctu-info=0 / no-lowpass-dct / refine-mv-type=0 / copy-pic=1 / max-ausize-factor=1.0 / no-dynamic-refine / no-single-sei
Язык : English
Default : Да
Forced : Нет
Цветовой диапазон : Limited
Основные цвета : BT.709
Характеристики трансфера : BT.709
Коэффициенты матрицы : BT.709

Аудио #1
Идентификатор : 2
Формат : AC-3
Формат/Информация : Audio Coding 3
Коммерческое название : Dolby Digital
Идентификатор кодека : A_AC3
Продолжительность : 2 ч. 4 м.
Вид битрейта : Постоянный
Битрейт : 448 Кбит/сек
Каналы : 6 каналов
ChannelLayout : L R C LFE Ls Rs
Частота : 48,0 КГц
Частота кадров : 31,250 кадров/сек (1536 SPF)
Битовая глубина : 16 бит
Метод сжатия : С потерями
Размер потока : 399 Мбайт (11%)
Заголовок : Дубляж
Язык : Russian
Default : Да
Forced : Нет

Аудио #2
Идентификатор : 3
Формат : AC-3
Формат/Информация : Audio Coding 3
Коммерческое название : Dolby Digital
Идентификатор кодека : A_AC3
Продолжительность : 2 ч. 4 м.
Вид битрейта : Постоянный
Битрейт : 448 Кбит/сек
Каналы : 6 каналов
ChannelLayout : L R C LFE Ls Rs
Частота : 48,0 КГц
Частота кадров : 31,250 кадров/сек (1536 SPF)
Битовая глубина : 16 бит
Метод сжатия : С потерями
Размер потока : 399 Мбайт (11%)
Заголовок : Original
Язык : English
Default : Нет
Forced : Нет

Текст #1
Идентификатор : 4
Формат : UTF-8
Идентификатор кодека : S_TEXT/UTF8
Идентификатор кодека/Информация : UTF-8 Plain Text
Продолжительность : 1 ч. 53 м.
Битрейт : 0 бит/сек
ElementCount : 16
Размер потока : 792 байт (0%)
Заголовок : Rus Forced
Язык : Russian
Default : Да
Forced : Да

Текст #2
Идентификатор : 5
Формат : UTF-8
Идентификатор кодека : S_TEXT/UTF8
Идентификатор кодека/Информация : UTF-8 Plain Text
Продолжительность : 2 ч. 4 м.
Битрейт : 87 бит/сек
ElementCount : 1540
Размер потока : 79,9 Кбайт (0%)
Заголовок : Rus Full
Язык : Russian
Default : Нет
Forced : Нет

Текст #3
Идентификатор : 6
Формат : UTF-8
Идентификатор кодека : S_TEXT/UTF8
Идентификатор кодека/Информация : UTF-8 Plain Text
Продолжительность : 2 ч. 4 м.
Битрейт : 64 бит/сек
ElementCount : 1523
Размер потока : 58,9 Кбайт (0%)
Заголовок : Eng Full
Язык : English
Default : Нет
Forced : Нет

Меню
00:00:00.000 : :(01)00:00:00:000
00:05:04.303 : :(02)00:05:04:303
00:11:07.583 : :(03)00:11:07:583
00:17:59.953 : :(04)00:17:59:953
00:25:53.009 : :(05)00:25:53:009
00:30:26.783 : :(06)00:30:26:783
00:37:33.000 : :(07)00:37:33:000
00:43:59.636 : :(08)00:43:59:636
00:51:39.346 : :(09)00:51:39:346
01:00:10.523 : :(10)01:00:10:523
01:07:01.517 : :(11)01:07:01:517
01:16:00.764 : :(12)01:16:00:764
01:21:13.283 : :(13)01:21:13:283
01:30:33.552 : :(14)01:30:33:552
01:38:49.339 : :(15)01:38:49:339
01:45:41.793 : :(16)01:45:41:793
01:54:17.350 : :(17)01:54:17:350
02:04:38.887 : :(18)02:04:38:887




_________________
Проголосуй за трекер Открытый торрент трекер - RUS-MEDIA.ORG

Проголосуй Открытый торрент трекер - RUS-MEDIA.ORG


Скачать книги и аудио книги через торрент


Вернуться к началу
 Профиль Отправить личное сообщение  
 
   Похожие торренты   Автор   Торрент   Размер 
В этой теме нет новых непрочитанных сообщений. Железный человек 2 / Iron Man 2 [фантастика, боевик, приключения, 2010] BDRip-HEVC 1080p, Dub

salma3

0 | 0

10.01 ГБ

В этой теме нет новых непрочитанных сообщений. Железный человек 2 / Iron Man [Фантастика, боевик, приключения, 2008] WEB-DLRip 720p, Dub [Open Matte]

salma3

0 | 0

3.97 ГБ

В этой теме нет новых непрочитанных сообщений. Железный человек 2 / Iron Man [Фантастика, боевик, приключения, 2008] WEB-DLRip 720p, Dub [Open Matte]

salma3

В этой теме нет новых непрочитанных сообщений. Железный человек 2 / Iron Man 2 [фантастика, боевик, приключения, 2010] WEB-DL 1080p, Dub [Open Matte]

salma3

0 | 0

16.95 ГБ

В этой теме нет новых непрочитанных сообщений. Железный человек 2 / Iron Man 2 [фантастика, боевик, приключения, 2010] HDRip, Dub [Open Matte] [Лицензия]

K15

0 | 0

1.45 ГБ

В этой теме нет новых непрочитанных сообщений. Железный человек 2 / Iron Man 2 [фантастика, боевик, приключения, 2010] WEB-DLRip-AVC, Dub [Open Matte]

salma3

0 | 0

3.22 ГБ

В этой теме нет новых непрочитанных сообщений. Железный человек / Iron Man [Фантастика, боевик, приключения, 2008] Hybrid 1080p, Dub [Open Matte]

salma3

0 | 0

20.37 ГБ


Начать новую тему Ответить на тему  [ 1 сообщение ] 




Для Мосгорсуда, Роскомнадзора и рекламодателей:: rstracker[собака]yandex.ru
cron
cron