COVID-19 - Последняя информация о коронавирусе на сайте Минздрава




Торрент файл
скачать торрент магнет ссылка Добавлен: 16 июл 2019, 10:43
Размер: 10.13 ГБ
Сидеров: 0
Личеров: 0
Статус: (salma3)
Автор

СообщениеДобавлено: 16 июл 2019, 10:43 

Не в сети
Супермодератор
Аватара пользователя
Дата регистрации:
15 фев 2012, 16:44
Возраст: 32
Спасибо: 8298 / 2148
Сообщения: 97020
Страна: США
Год выпуска: 2013
Жанр: Боевик, Триллер, драма
Продолжительность: 01:49:19
Перевод: Дублированный, многоголосый, закадровый, авторский
Режиссер: Бальтасар Кормакур

В ролях: Дензел Вашингтон, Марк Уолберг, Пола Пэттон, Билл Пэкстон, Эдвард Джеймс Олмос, Джеймс Марсден, Роберт Джон Бёрк, Фред Уорд, Патрик Фишлер, Лаки Джонсон, Грег Спролс, Эдгар Арреола, Дерек Солорсано, Кайл Расселл Клементс, Мэтт Кук, Тим Белл, Джон МакКоннелл, Эмбир Чилдерс, Линдси Дж. Смит, Джейсон Киркпатрик

Описание: Это история двух грабителей, которые на самом деле не те, кем кажутся. Один из них — агент из управления по борьбе с наркотиками, а другой — тайный агент разведки ВМС. Сами того не желая, они занимаются расследованием дел друг друга, а также воруют деньги у мафии. Через некоторое время героям придется украсть 50 миллионов долларов у ЦРУ.



Кодек: х264
Качество: BDRip 720p
Видео: MPEG-4 AVC,8400 Кбит/с, 1276х532, 23.976 fps
Аудио 1: Русский, АС3, 6 ch, 640 Кбит/с Дубляж, BD CEE
Аудио 2: Русский, АС3, 6 ch, 640 Кбит/с Дубляж, Custom
Аудио 3: Русский, АС3, 2 ch, 192 Кбит/с Многоголосый закадровый, Рыжий пес
Аудио 4: Русский, АС3, 6 ch, 640 Кбит/с Авторский (одноголосый закадровый) А. Гаврилов
Аудио 5: Русский, АС3, 6 ch, 640 Кбит/с Авторский (одноголосый закадровый) Ю. Сербин
Аудио 6: Русский, АС3, 6 ch, 640 Кбит/с Авторский (одноголосый закадровый) Л. Володарский
Аудио 7: Украинский, АС3, 6 ch, 640 Кбит/с Дубляж, BD CEE
Аудио 8: Английский, АС3, 6 ch, 640 Кбит/с Оригинал
Аудио 9: Английский, АС3, 2 ch, 192 Кбит/с Commentary
Субтитры: Русские (форс, полные), английские (полные, SDH)
Главы: Есть




Исходник благодарю djamb и TeamHD
В качестве исходника был выбран BD CEE с более низким битрейтом и чуть более четким видеорядом, вдобавок не имеющий хардсаба на испанскую речь.
Так как эта самая испанская речь в дубляже не переведена - были сделаны вставки из перевода Сербина.
Дорога Дубляж кастом сделана из оригинальной DTS-HD MA и дублированной лицензионной дорожки путём замены всех участков с английской речью, отголосками и эхом на аналогичные с дублированной дорожки во всех каналах, спасибо djamb
Дорога Гаврилова собрана с чистого голоса, спасибо Timur
Дороги Сербина и Володарского собраны с чистых голосов, спасибо Прагматик
Перевод Ю.Сербина выполнен в рамках совместного проекта сервиса от HDCLUB "Озвучивание" и Е-180 "Народный проект".
Перевод Леонида Володарского силами Е-180, за что им превеликое спасибо. Нужно заметить, что в переводе Володарского не мало пропусков, но в целом: "бомба"!
За спонсорскую поддержку спасибо: mishka, n1ko1as, Jiraya87, Fair


x264 [info]: frame I:1298 Avg QP:14.19 size:179507
x264 [info]: frame P:36209 Avg QP:16.08 size: 80815
x264 [info]: frame B:119765 Avg QP:18.42 size: 31114

Общее
Уникальный идентификатор : 242594251986422702192922255291294370073 (0xB681F4139324AE7D971AA6F0D1934919)
Полное имя : I:коллекцияДва ствола 2013 BDRip 720p.mkv
Формат : Matroska
Версия формата : Version 2
Размер файла : 10,1 Гбайт
Продолжительность : 1 ч. 49 м.
Общий поток : 13,3 Мбит/сек
Название фильма : Два ствола 2013 от mister.hats
Дата кодирования : UTC 2019-07-15 20:31:39
Программа кодирования : mkvmerge v5.8.0 ('No Sleep / Pillow') built on Sep 2 2012 15:37:04
Библиотека кодирования : libebml v1.2.3 + libmatroska v1.3.0
Обложка : Yes
Attachments : cover.png

Видео
Идентификатор : 1
Формат : AVC
Формат/Информация : Advanced Video Codec
Профиль формата : High@L4.1
Настройки формата : CABAC / 12 Ref Frames
Параметр CABAC формата : Да
Параметр RefFrames формата : 12 кадров
Идентификатор кодека : V_MPEG4/ISO/AVC
Продолжительность : 1 ч. 49 м.
Битрейт : 8400 Кбит/сек
Ширина : 1276 пикселей
Высота : 532 пикселя
Соотношение сторон : 2,40:1
Режим частоты кадров : Постоянный
Частота кадров : 23,976 (24000/1001) кадра/сек
Цветовое пространство : YUV
Субдискретизация насыщенности : 4:2:0
Битовая глубина : 8 бит
Тип развёртки : Прогрессивная
Бит/(Пиксели*Кадры) : 0.516
Размер потока : 6,22 Гбайт (61%)
Библиотека кодирования : x264 core 152 r2851kMod ba24899
Настройки программы : cabac=1 / ref=12 / deblock=1:-2:-2 / analyse=0x3:0x113 / me=umh / subme=11 / psy=1 / fade_compensate=0.00 / psy_rd=1.00:0.00 / mixed_ref=1 / me_range=48 / chroma_me=1 / trellis=2 / 8x8dct=1 / cqm=0 / deadzone=21,11 / fast_pskip=0 / chroma_qp_offset=-2 / threads=12 / lookahead_threads=3 / sliced_threads=0 / nr=0 / decimate=0 / interlaced=0 / bluray_compat=0 / constrained_intra=0 / bframes=11 / b_pyramid=2 / b_adapt=2 / b_bias=0 / direct=3 / weightb=1 / open_gop=0 / weightp=2 / keyint=240 / keyint_min=23 / scenecut=40 / intra_refresh=0 / rc_lookahead=40 / rc=2pass / mbtree=0 / bitrate=8400 / ratetol=1.0 / qcomp=0.60 / qpmin=0 / qpmax=39 / qpstep=4 / cplxblur=20.0 / qblur=0.5 / vbv_maxrate=50000 / vbv_bufsize=62500 / nal_hrd=none / filler=0 / ip_ratio=1.25 / pb_ratio=1.30 / aq=1:1.00
Язык : English
Default : Да
Forced : Нет
Цветовой диапазон : Limited
Основные цвета : BT.709
Характеристики трансфера : BT.709
Коэффициенты матрицы : BT.709

Аудио #1
Идентификатор : 2
Формат : AC-3
Формат/Информация : Audio Coding 3
Параметр Endianness формата : Big
Идентификатор кодека : A_AC3
Продолжительность : 1 ч. 49 м.
Вид битрейта : Постоянный
Битрейт : 640 Кбит/сек
Каналы : 6 каналов
Расположение каналов : Front: L C R, Side: L R, LFE
Частота : 48,0 КГц
Частота кадров : 31,250 кадров/сек (1536 SPF)
Битовая глубина : 16 бит
Метод сжатия : С потерями
Размер потока : 500 Мбайт (5%)
Заголовок : Дубляж, BD CEE
Язык : Russian
Default : Да
Forced : Нет

Аудио #2
Идентификатор : 3
Формат : AC-3
Формат/Информация : Audio Coding 3
Параметр Endianness формата : Big
Идентификатор кодека : A_AC3
Продолжительность : 1 ч. 49 м.
Вид битрейта : Постоянный
Битрейт : 640 Кбит/сек
Каналы : 6 каналов
Расположение каналов : Front: L C R, Side: L R, LFE
Частота : 48,0 КГц
Частота кадров : 31,250 кадров/сек (1536 SPF)
Битовая глубина : 16 бит
Метод сжатия : С потерями
Размер потока : 500 Мбайт (5%)
Заголовок : Дубляж, Custom
Язык : Russian
Default : Нет
Forced : Нет

Аудио #3
Идентификатор : 4
Формат : AC-3
Формат/Информация : Audio Coding 3
Параметр Endianness формата : Big
Идентификатор кодека : A_AC3
Продолжительность : 1 ч. 49 м.
Вид битрейта : Постоянный
Битрейт : 192 Кбит/сек
Каналы : 2 канала
Расположение каналов : Front: L R
Частота : 48,0 КГц
Частота кадров : 31,250 кадров/сек (1536 SPF)
Битовая глубина : 16 бит
Метод сжатия : С потерями
Размер потока : 150 Мбайт (1%)
Заголовок : Многоголосый закадровый, Рыжий пес
Язык : Russia
Default : Нет
Forced : Нет

Аудио #4
Идентификатор : 5
Формат : AC-3
Формат/Информация : Audio Coding 3
Параметр Endianness формата : Big
Идентификатор кодека : A_AC3
Продолжительность : 1 ч. 49 м.
Вид битрейта : Постоянный
Битрейт : 640 Кбит/сек
Каналы : 6 каналов
Расположение каналов : Front: L C R, Side: L R, LFE
Частота : 48,0 КГц
Частота кадров : 31,250 кадров/сек (1536 SPF)
Битовая глубина : 16 бит
Метод сжатия : С потерями
Размер потока : 500 Мбайт (5%)
Заголовок : Авторский (одноголосый закадровый) А. Гаврилов
Язык : Russian
Default : Нет
Forced : Нет

Аудио #5
Идентификатор : 6
Формат : AC-3
Формат/Информация : Audio Coding 3
Параметр Endianness формата : Big
Идентификатор кодека : A_AC3
Продолжительность : 1 ч. 49 м.
Вид битрейта : Постоянный
Битрейт : 640 Кбит/сек
Каналы : 6 каналов
Расположение каналов : Front: L C R, Side: L R, LFE
Частота : 48,0 КГц
Частота кадров : 31,250 кадров/сек (1536 SPF)
Битовая глубина : 16 бит
Метод сжатия : С потерями
Размер потока : 500 Мбайт (5%)
Заголовок : Авторский (одноголосый закадровый) Ю. Сербин
Язык : Russian
Default : Нет
Forced : Нет

Аудио #6
Идентификатор : 7
Формат : AC-3
Формат/Информация : Audio Coding 3
Параметр Endianness формата : Big
Идентификатор кодека : A_AC3
Продолжительность : 1 ч. 49 м.
Вид битрейта : Постоянный
Битрейт : 640 Кбит/сек
Каналы : 6 каналов
Расположение каналов : Front: L C R, Side: L R, LFE
Частота : 48,0 КГц
Частота кадров : 31,250 кадров/сек (1536 SPF)
Битовая глубина : 16 бит
Метод сжатия : С потерями
Размер потока : 500 Мбайт (5%)
Заголовок : Авторский (одноголосый закадровый) Л. Володарский
Язык : Russian
Default : Нет
Forced : Нет

Аудио #7
Идентификатор : 8
Формат : AC-3
Формат/Информация : Audio Coding 3
Параметр Endianness формата : Big
Идентификатор кодека : A_AC3
Продолжительность : 1 ч. 49 м.
Вид битрейта : Постоянный
Битрейт : 640 Кбит/сек
Каналы : 6 каналов
Расположение каналов : Front: L C R, Side: L R, LFE
Частота : 48,0 КГц
Частота кадров : 31,250 кадров/сек (1536 SPF)
Битовая глубина : 16 бит
Метод сжатия : С потерями
Размер потока : 500 Мбайт (5%)
Заголовок : Дубляж, BD CEE
Язык : Ukrainian
Default : Нет
Forced : Нет

Аудио #8
Идентификатор : 9
Формат : AC-3
Формат/Информация : Audio Coding 3
Параметр Endianness формата : Big
Идентификатор кодека : A_AC3
Продолжительность : 1 ч. 49 м.
Вид битрейта : Постоянный
Битрейт : 640 Кбит/сек
Каналы : 6 каналов
Расположение каналов : Front: L C R, Side: L R, LFE
Частота : 48,0 КГц
Частота кадров : 31,250 кадров/сек (1536 SPF)
Битовая глубина : 16 бит
Метод сжатия : С потерями
Размер потока : 500 Мбайт (5%)
Заголовок : Оригинал
Язык : English
Default : Нет
Forced : Нет

Аудио #9
Идентификатор : 10
Формат : AC-3
Формат/Информация : Audio Coding 3
Параметр Endianness формата : Big
Идентификатор кодека : A_AC3
Продолжительность : 1 ч. 49 м.
Вид битрейта : Постоянный
Битрейт : 192 Кбит/сек
Каналы : 2 канала
Расположение каналов : Front: L R
Частота : 48,0 КГц
Частота кадров : 31,250 кадров/сек (1536 SPF)
Битовая глубина : 16 бит
Метод сжатия : С потерями
Размер потока : 150 Мбайт (1%)
Заголовок : Commentary
Язык : English
Default : Нет
Forced : Нет

Текст #1
Идентификатор : 11
Формат : UTF-8
Идентификатор кодека : S_TEXT/UTF8
Идентификатор кодека/Информация : UTF-8 Plain Text
Заголовок : Forced, BD CEE
Язык : Russian
Default : Да
Forced : Нет

Текст #2
Идентификатор : 12
Формат : UTF-8
Идентификатор кодека : S_TEXT/UTF8
Идентификатор кодека/Информация : UTF-8 Plain Text
Заголовок : Full, BD CEE
Язык : Russian
Default : Нет
Forced : Нет

Текст #3
Идентификатор : 13
Формат : UTF-8
Идентификатор кодека : S_TEXT/UTF8
Идентификатор кодека/Информация : UTF-8 Plain Text
Заголовок : Full, BD CEE
Язык : English
Default : Нет
Forced : Нет

Текст #4
Идентификатор : 14
Формат : UTF-8
Идентификатор кодека : S_TEXT/UTF8
Идентификатор кодека/Информация : UTF-8 Plain Text
Заголовок : SDH, BD CEE
Язык : English
Default : Нет
Forced : Нет

Меню
00:00:00.000 : en:Chapter 1
00:05:47.386 : en:Chapter 2
00:12:12.397 : en:Chapter 3
00:17:21.538 : en:Chapter 4
00:23:30.865 : en:Chapter 5
00:29:32.268 : en:Chapter 6
00:36:35.483 : en:Chapter 7
00:41:07.755 : en:Chapter 8
00:47:33.809 : en:Chapter 9
00:52:28.436 : en:Chapter 10
00:58:25.168 : en:Chapter 11
01:06:01.414 : en:Chapter 12
01:11:38.002 : en:Chapter 13
01:15:57.970 : en:Chapter 14
01:24:58.301 : en:Chapter 15
01:31:23.435 : en:Chapter 16



_________________
Проголосуй за трекер Открытый торрент трекер - RUS-MEDIA.ORG

Проголосуй Открытый торрент трекер - RUS-MEDIA.ORG


Скачать книги и аудио книги через торрент


Вернуться к началу
 Профиль Отправить личное сообщение  
 
   Похожие торренты   Автор   Торрент   Размер 
В этой теме нет новых непрочитанных сообщений. Карты, деньги, два ствола / Lock, Stock and Two Smoking Barrels [Триллер, комедия, криминал, 1998] BDRip 720p, Mvo

NTL

0 | 0

4.36 ГБ

В этой теме нет новых непрочитанных сообщений. Молодые стрелки 2 / Young Guns II [Вестерн, боевик, 1990] BDRip 720p, Dvo

salma3

0 | 0

5.21 ГБ

В этой теме нет новых непрочитанных сообщений. Риддик / Riddick [Фантастика, боевик, триллер, 2013] BDRip 720p, Dub [Theatrical Cut] [Open Matte]

salma3

0 | 0

4.37 ГБ

В этой теме нет новых непрочитанных сообщений. Сотовый / Cellular [Боевик, триллер, драма, 2004] BDRip 720p, Dub

salma3

0 | 0

5.8 ГБ

В этой теме нет новых непрочитанных сообщений. Неуправляемый / Unstoppable [боевик, триллер, драма, 2010] BDRip 720p, Dub

salma3

7 | 1

5.75 ГБ

В этой теме нет новых непрочитанных сообщений. Каратель / The Punisher [Боевик, триллер, драма, 2004] BDRip 720p, Dub

salma3

0 | 0

6.46 ГБ

В этой теме нет новых непрочитанных сообщений. 16 кварталов / 16 Blocks [Боевик, триллер, драма, 2006] BDRip 720p, Dub

salma3

0 | 0

4.74 ГБ


Начать новую тему Ответить на тему  [ 1 сообщение ] 




Для Мосгорсуда, Роскомнадзора и рекламодателей:: rstracker[собака]yandex.ru
cron