COVID-19 - Последняя информация о коронавирусе на сайте Минздрава




Торрент файл
скачать торрент магнет ссылка Добавлен: 12 июл 2019, 21:11
Размер: 8.7 ГБ
Сидеров: 0
Личеров: 0
Статус: (salma3)
Автор

СообщениеДобавлено: 12 июл 2019, 21:11 

Не в сети
Супермодератор
Аватара пользователя
Дата регистрации:
15 фев 2012, 16:44
Возраст: 30
Спасибо: 8262 / 2148
Сообщения: 96146
Год выхода: 2010
Жанр: боевик, триллер, драма
Режиссер: Фред Кавайе

В ролях: Жилль Лелуш, Рошди Зем, Жерар Ланвен, Елена Анайя, Мирей Перье, Клер Перо

О фильме:
Профессия Сэмюэля Перрье — спасать людей. Но в этот раз медбрат спас ну совсем «не того» парня. И вот теперь его беременную жену похитили бандиты, чтобы заставить Сэмюэля помочь их пахану свалить из больницы. Чтобы спасти жену и выжить самому, ему предстоит выиграть смертельные гонки на выживание с бандитами и полицейскими не только по улицам Парижа, но и под землей.



Страна: Франция
Продолжительность: 01:24:01
Перевод 1: Профессиональный (многоголосый закадровый) лицензия R5
Перевод 2: Авторский (одноголосый закадровый) Андрей Гаврилов
Перевод 3: Любительский (одноголосый закадровый) DeMon
Перевод 4: Профессиональный (многоголосый закадровый)
Субтитры: Русские, украинские, английские

Файл
Качество: BDRip 720p
Видео: AVC, 1280x544 (2.35:1), 24.000 fps, 9 361 Kbps (0.560 bit/pixel)
Аудио #1: AC-3, 48.0 KHz, 6 ch, 640 Kbps, CBR (Russian)
Аудио #2: DTS, 48.0 KHz, 6 ch, 1 510 Kbps, CBR (Russian)
Аудио #3: DTS, 48.0 KHz, 6 ch, 1 510 Kbps, CBR (Russian)
Аудио #4: DTS, 48.0 KHz, 6 ch, 1 510 Kbps, CBR (French)

Общее
Уникальный идентификатор : 212742710633504724705491073133246564028 (0xA00CC174A1DDF3D6AA11371B68CA46BC)
Полное имя : Z:torrentsfilmsÀ.bout.portant.2010.720p.BluRay.DD5.1.x264-EbP.mkv
Формат : Matroska
Версия формата : Version 2
Размер файла : 8,70 Гбайт
Продолжительность : 1 ч. 24 м.
Общий поток : 14,8 Мбит/сек
Название фильма : -Talian-
Дата кодирования : UTC 2012-09-28 12:58:56
Программа кодирования : mkvmerge v5.7.0 ('The Whirlwind') built on Jul 8 2012 20:08:51
Библиотека кодирования : libebml v1.2.3 + libmatroska v1.3.0

Видео
Идентификатор : 1
Формат : AVC
Формат/Информация : Advanced Video Codec
Профиль формата : High@L4.1
Параметр CABAC формата : Да
Параметр ReFrames формата : 10 кадров
Идентификатор кодека : V_MPEG4/ISO/AVC
Продолжительность : 1 ч. 24 м.
Битрейт : 9361 Кбит/сек
Ширина : 1280 пикселей
Высота : 544 пикселя
Соотношение сторон : 2,35:1
Режим частоты кадров : Постоянный
Частота кадров : 24,000 кадра/сек
Цветовое пространство : YUV
Субдискретизация насыщенности : 4:2:0
Битовая глубина : 8 бит
Тип развёртки : Прогрессивная
Бит/(Пиксели*Кадры) : 0.560
Размер потока : 5,49 Гбайт (63%)
Заголовок : À.bout.portant.2010.720p.BluRay.DD5.1.x264-EbP
Библиотека кодирования : x264 core 116 r2074 2641b9e
Настройки программы : cabac=1 / ref=10 / deblock=1:-3:-3 / analyse=0x3:0x113 / me=umh / subme=10 / psy=1 / psy_rd=1.25:0.00 / mixed_ref=1 / me_range=16 / chroma_me=1 / trellis=2 / 8x8dct=1 / cqm=0 / deadzone=21,11 / fast_pskip=0 / chroma_qp_offset=-2 / threads=6 / sliced_threads=0 / nr=0 / decimate=0 / interlaced=0 / bluray_compat=0 / constrained_intra=0 / bframes=7 / b_pyramid=2 / b_adapt=2 / b_bias=0 / direct=3 / weightb=1 / open_gop=0 / weightp=2 / keyint=250 / keyint_min=24 / scenecut=40 / intra_refresh=0 / rc=crf / mbtree=0 / crf=16.7 / qcomp=0.60 / qpmin=0 / qpmax=69 / qpstep=4 / ip_ratio=1.40 / pb_ratio=1.30 / aq=1:0.50
Язык : English
Default : Нет
Forced : Нет

Аудио #1
Идентификатор : 2
Формат : AC-3
Формат/Информация : Audio Coding 3
Расширение режима : CM (complete main)
Параметр Endianness формата : Big
Идентификатор кодека : A_AC3
Продолжительность : 1 ч. 24 м.
Вид битрейта : Постоянный
Битрейт : 640 Кбит/сек
Каналы : 6 каналов
Расположение каналов : Front: L C R, Side: L R, LFE
Частота : 48,0 КГц
Частота кадров : 31,250 кадров/сек (1536 spf)
Метод сжатия : С потерями
Размер потока : 385 Мбайт (4%)
Заголовок : DUB
Язык : Russian
Default : Да
Forced : Нет

Аудио #2
Идентификатор : 3
Формат : DTS
Формат/Информация : Digital Theater Systems
Режим : 16
Параметр Endianness формата : Big
Идентификатор кодека : A_DTS
Продолжительность : 1 ч. 24 м.
Вид битрейта : Постоянный
Битрейт : 1510 Кбит/сек
Каналы : 6 каналов
Расположение каналов : Front: L C R, Side: L R, LFE
Частота : 48,0 КГц
Частота кадров : 93,750 кадра/сек (512 spf)
Битовая глубина : 24 бит
Метод сжатия : С потерями
Размер потока : 907 Мбайт (10%)
Заголовок : AVO-Гаврилов
Язык : Russian
Default : Нет
Forced : Нет

Аудио #3
Идентификатор : 4
Формат : DTS
Формат/Информация : Digital Theater Systems
Режим : 16
Параметр Endianness формата : Big
Идентификатор кодека : A_DTS
Продолжительность : 1 ч. 24 м.
Вид битрейта : Постоянный
Битрейт : 1510 Кбит/сек
Каналы : 6 каналов
Расположение каналов : Front: L C R, Side: L R, LFE
Частота : 48,0 КГц
Частота кадров : 93,750 кадра/сек (512 spf)
Битовая глубина : 24 бит
Метод сжатия : С потерями
Размер потока : 907 Мбайт (10%)
Заголовок : VO-DeMon
Язык : Russian
Default : Нет
Forced : Нет

Аудио #4
Идентификатор : 5
Формат : DTS
Формат/Информация : Digital Theater Systems
Режим : 16
Параметр Endianness формата : Big
Идентификатор кодека : A_DTS
Продолжительность : 1 ч. 24 м.
Вид битрейта : Постоянный
Битрейт : 1509 Кбит/сек
Каналы : 6 каналов
Расположение каналов : Front: L C R, Side: L R, LFE
Частота : 48,0 КГц
Частота кадров : 93,750 кадра/сек (512 spf)
Битовая глубина : 24 бит
Метод сжатия : С потерями
Размер потока : 907 Мбайт (10%)
Заголовок : Original
Язык : French
Default : Нет
Forced : Нет

Текст #1
Идентификатор : 6
Формат : UTF-8
Идентификатор кодека : S_TEXT/UTF8
Идентификатор кодека/Информация : UTF-8 Plain Text
Заголовок : Sub
Язык : Russian
Default : Нет
Forced : Нет

Текст #2
Идентификатор : 7
Формат : UTF-8
Идентификатор кодека : S_TEXT/UTF8
Идентификатор кодека/Информация : UTF-8 Plain Text
Заголовок : Sub
Язык : Ukrainian
Default : Нет
Forced : Нет

Текст #3
Идентификатор : 8
Формат : UTF-8
Идентификатор кодека : S_TEXT/UTF8
Идентификатор кодека/Информация : UTF-8 Plain Text
Заголовок : Sub
Язык : English
Default : Нет
Forced : Нет

Текст #4
Идентификатор : 9
Формат : UTF-8
Идентификатор кодека : S_TEXT/UTF8
Идентификатор кодека/Информация : UTF-8 Plain Text
Заголовок : Sub-SDH
Язык : English
Default : Нет
Forced : Нет

Меню
00:00:00.000 : en:00:00:00.000
00:06:24.125 : en:00:06:24.125
00:13:00.375 : en:00:13:00.375
00:21:25.458 : en:00:21:25.458
00:27:55.583 : en:00:27:55.583
00:34:05.750 : en:00:34:05.750
00:40:16.542 : en:00:40:16.542
00:48:48.250 : en:00:48:48.250
00:54:26.458 : en:00:54:26.458
00:59:38.208 : en:00:59:38.208
01:08:11.083 : en:01:08:11.083
01:15:53.083 : en:01:15:53.083


_________________
Проголосуй за трекер Открытый торрент трекер - RUS-MEDIA.ORG

Проголосуй Открытый торрент трекер - RUS-MEDIA.ORG


Скачать книги и аудио книги через торрент


Вернуться к началу
 Профиль Отправить личное сообщение  
 
   Похожие торренты   Автор   Торрент   Размер 
В этой теме нет новых непрочитанных сообщений. Три часа на побег / À bout portant [Боевик, триллер, криминал, 2010] HDRip-AVC, Mvo

salma3

244 | 34

744.65 МБ

В этой теме нет новых непрочитанных сообщений. Три дня на побег / The Next Three Days [Триллер, драма, мелодрама, 2010] BDRip-HEVC 1080p, Dub

salma3

44 | 5

4.03 ГБ

В этой теме нет новых непрочитанных сообщений. Побег / The Getaway [боевик, триллер, драма, 1994] BDRip 720p, Mvo

salma3

6 | 2

8.12 ГБ

В этой теме нет новых непрочитанных сообщений. В упор / Point Blank [триллер, криминал, 1967] BDRip 720p, Mvo

salma3

0 | 0

5.32 ГБ

В этой теме нет новых непрочитанных сообщений. Побег / The Getaway [боевик, триллер, криминал, 1972] BDRip 720p, Mvo

salma3

19 | 9

7.95 ГБ

В этой теме нет новых непрочитанных сообщений. В упор / At Close Range [драма, криминал, 1986] BDRip 720p, Mvo

salma3

0 | 0

3.55 ГБ

В этой теме нет новых непрочитанных сообщений. Побег из Лос-Анджелеса / Escape from L.A. [фантастика, боевик, триллер, 1996] BDRip 720p, Mvo

salma3

0 | 0

7.36 ГБ


Начать новую тему Ответить на тему  [ 1 сообщение ] 




Для Мосгорсуда, Роскомнадзора и рекламодателей:: rstracker[собака]yandex.ru
cron