COVID-19 - Последняя информация о коронавирусе на сайте Минздрава




Торрент файл
скачать торрент магнет ссылка Добавлен: 12 июл 2019, 11:20
Размер: 77.98 ГБ
Сидеров: 0
Личеров: 1
Статус: (salma3)
Автор

СообщениеДобавлено: 12 июл 2019, 11:20 

Не в сети
Супермодератор
Аватара пользователя
Дата регистрации:
15 фев 2012, 16:44
Возраст: 32
Спасибо: 8304 / 2148
Сообщения: 97121
Год выхода: 2003
Жанр: Фантастика, боевик
Режиссер: Энг Ли

В ролях: Эрик Бана, Дженнифер Коннелли, Сэм Эллиотт, Джош Лукас, Ник Нолти, Кара Буоно, Кевин Ранкин, Селия Уэстон, Пол Керси, Тодд Тэсэн, Джеффри Скотт, Дэниэл Дэ Ким, Майкл Кроненберг, Даниелла Кун, Крэйг Дэймон

О фильме:
Студентов из престижного университета набирают в рабочую группу секретного военного проекта по созданию машины, способной перестраивать клетки человеческого организма. Лидером группы является Брюс Бэннер. Неожиданно проект "Гаммасфера" выходит из под контроля ученых, и Брюс Бэннер подвергается воздействию этого аппарата. В результате он получает невиданную возможность превращаться в огромного зеленого монстра всякий раз, как только что-то начинает его злить. Это существо вскоре начинают называть Халком. Хотя Халк - это темная сторона души Брюса, он находит в себе силы поставить ее на службу праведным целям.



Страна: США
Продолжительность: 02:18:13
Перевод(ы)1: Дублированный | Лицензия
Перевод(ы)2: Авторский | Живов

Качество: BDRemux 2160p
Видео: 3840x2160 at 23.976 fps, MPEG-H HEVC HDR Video, 70700 kbps avg
Аудио #01: 48 kHz, DTS, 5.1, 768 Kbps | Дублированный | RUS
Аудио #02: 48 kHz, DTS-HD MA, 5.1, 4096 Kbps | Авторский | RUS
Аудио #03: 48 kHz, AC3, 2.0, 224 Kbps | Дублированный | UKR
Аудио #04: 48 kHz, DTS-HD MA, 7.1, 5015 Kbps | Оригинал | ENG
Субтитры: Русские (forced, full), английские

General
Unique ID : 332168139063585409711057213483355186040 (0xF9E541ADE05FDC17617260F57D1BA378)
Complete name : E:RelizesHulk.2003.BDREMUX.2160p.HDR.seleZen.mkv
Format : Matroska
Format version : Version 4
File size : 78.0 GiB
Duration : 2 h 18 min
Overall bit rate mode : Variable
Overall bit rate : 80.8 Mb/s
Movie name : Hulk 2003 4K from селезень
Encoded date : UTC 2019-07-12 06:22:31
Writing application : mkvmerge v35.0.0 ('All The Love In The World') 64-bit
Writing library : libebml v1.3.9 + libmatroska v1.5.2

Video
ID : 1
Format : HEVC
Format/Info : High Efficiency Video Coding
Format profile : Main 10@L5.1@High
HDR format : SMPTE ST 2086, HDR10 compatible
Codec ID : V_MPEGH/ISO/HEVC
Duration : 2 h 18 min
Bit rate : 70.7 Mb/s
Width : 3 840 pixels
Height : 2 160 pixels
Display aspect ratio : 16:9
Frame rate mode : Constant
Frame rate : 23.976 (24000/1001) FPS
Color space : YUV
Chroma subsampling : 4:2:0 (Type 2)
Bit depth : 10 bits
Bits/(Pixel*Frame) : 0.356
Stream size : 68.2 GiB (87%)
Writing library : ATEME Titan File 3.9.0 (4.9.0.0)
Language : English
Default : Yes
Forced : No
Color range : Limited
Color primaries : BT.2020
Transfer characteristics : PQ
Matrix coefficients : BT.2020 non-constant
Mastering display color pri : Display P3
Mastering display luminance : min: 0.0050 cd/m2, max: 1000 cd/m2
Maximum Content Light Level : 1000 cd/m2
Maximum Frame-Average Light : 270 cd/m2

Audio #1
ID : 2
Format : DTS
Format/Info : Digital Theater Systems
Codec ID : A_DTS
Duration : 2 h 18 min
Bit rate mode : Constant
Bit rate : 768 kb/s
Channel(s) : 6 channels
Channel layout : C L R Ls Rs LFE
Sampling rate : 48.0 kHz
Frame rate : 93.750 FPS (512 SPF)
Bit depth : 24 bits
Compression mode : Lossy
Stream size : 759 MiB (1%)
Title : Dub [License]
Language : Russian
Default : Yes
Forced : Yes

Audio #2
ID : 3
Format : DTS XLL
Format/Info : Digital Theater Systems
Commercial name : DTS-HD Master Audio
Codec ID : A_DTS
Duration : 2 h 18 min
Bit rate mode : Variable
Bit rate : 4 096 kb/s
Channel(s) : 6 channels
Channel layout : C L R Ls Rs LFE
Sampling rate : 48.0 kHz
Frame rate : 93.750 FPS (512 SPF)
Bit depth : 24 bits
Compression mode : Lossless
Stream size : 3.95 GiB (5%)
Title : AVO [Живов]
Language : Russian
Default : No
Forced : No

Audio #3
ID : 4
Format : AC-3
Format/Info : Audio Coding 3
Commercial name : Dolby Digital
Codec ID : A_AC3
Duration : 2 h 13 min
Bit rate mode : Constant
Bit rate : 224 kb/s
Channel(s) : 2 channels
Channel layout : L R
Sampling rate : 48.0 kHz
Frame rate : 31.250 FPS (1536 SPF)
Bit depth : 16 bits
Compression mode : Lossy
Stream size : 213 MiB (0%)
Language : Ukrainian
Service kind : Complete Main
Default : No
Forced : No

Audio #4
ID : 5
Format : DTS XLL X
Format/Info : Digital Theater Systems
Commercial name : DTS-HD Master Audio
Codec ID : A_DTS
Duration : 2 h 18 min
Bit rate mode : Variable
Bit rate : 5 015 kb/s
Channel(s) : 8 channels
Channel(s)_Original : Object Based
ChannelLayout_Original : Object Based
Sampling rate : 48.0 kHz
Frame rate : 93.750 FPS (512 SPF)
Bit depth : 24 bits
Stream size : 4.84 GiB (6%)
Title : Original
Language : English
Default : No
Forced : No

Text #1
ID : 6
Format : UTF-8
Codec ID : S_TEXT/UTF8
Codec ID/Info : UTF-8 Plain Text
Duration : 1 h 58 min
Bit rate : 0 b/s
Count of elements : 8
Stream size : 310 Bytes (0%)
Title : Forced
Language : Russian
Default : Yes
Forced : Yes

Text #2
ID : 7
Format : UTF-8
Codec ID : S_TEXT/UTF8
Codec ID/Info : UTF-8 Plain Text
Duration : 2 h 10 min
Bit rate : 58 b/s
Count of elements : 1016
Stream size : 56.1 KiB (0%)
Title : Full
Language : Russian
Default : No
Forced : No

Text #3
ID : 8
Format : UTF-8
Codec ID : S_TEXT/UTF8
Codec ID/Info : UTF-8 Plain Text
Duration : 2 h 12 min
Bit rate : 40 b/s
Count of elements : 1253
Stream size : 39.6 KiB (0%)
Title : SDH
Language : English
Default : No
Forced : No

Menu
00:00:00.000 : en:Main Titles
00:04:20.135 : en:The Banne Bloodline
00:11:21.514 : en:Dr. Krenzler
00:13:55.126 : en:Nanomeds and Gamma Rays
00:17:24.210 : en:Talbot's Offer
00:20:12.795 : en:My First Memory
00:22:50.494 : en:My Bruce
00:29:16.838 : en:The Accident
00:32:37.789 : en:Your Name is Banner
00:37:02.971 : en:Lunch with Dad
00:39:24.779 : en:The Beast Within
00:45:12.793 : en:The Morning After
00:49:00.980 : en:My Son is Unique
00:54:11.123 : en:Forced Hand
00:57:39.956 : en:Talbot's Mistake
00:59:53.381 : en:Betty and the Beast
01:11:14.770 : en:His Father's Son
01:16:10.566 : en:The Essences of All Things
01:19:14.249 : en:Home
01:24:54.548 : en:Talbot in Charge
01:27:20.777 : en:My Downfall
01:32:04.352 : en:Out of Control
01:36:14.519 : en:Desert Fury
01:41:42.179 : en:Target: Hulk
01:47:10.591 : en:Top of the World
01:49:48.916 : en:A Chance to Calm Down
01:55:36.888 : en:Give Back Your Life
02:02:55.743 : en:Battle of the Banners
02:07:34.146 : en:Sweet Dreams
02:08:31.203 : en:One Year Later...
02:11:07.193 : en:Me Esta Enojando
02:12:41.453 : en:End Titles


Релиз:


_________________
Проголосуй за трекер Открытый торрент трекер - RUS-MEDIA.ORG

Проголосуй Открытый торрент трекер - RUS-MEDIA.ORG


Скачать книги и аудио книги через торрент


Вернуться к началу
 Профиль Отправить личное сообщение  
 
   Похожие торренты   Автор   Торрент   Размер 
В этой теме нет новых непрочитанных сообщений. Халк / Hulk [Фантастика, боевик, 2003] UHD Blu-ray 2160p EUR, Dub [4K] [Лицензия]

salma3

0 | 0

82.73 ГБ

В этой теме нет новых непрочитанных сообщений. Халк / Hulk [фантастика, боевик, 2003] UHD BDRip 1080p, Dub

salma3

0 | 0

12.81 ГБ

В этой теме нет новых непрочитанных сообщений. Невероятный Халк / The Incredible Hulk [фантастика, боевик, триллер, 2008] UHDRip 2160p, Dub [4K]

salma3

1 | 0

29.99 ГБ

В этой теме нет новых непрочитанных сообщений. Капитан Марвел / Captain Marvel [Фантастика, боевик, приключения, 2019] UHD BDRemux 2160p, Dub [Лицензия] [4K]

salma3

0 | 0

45.73 ГБ

В этой теме нет новых непрочитанных сообщений. Тёмные отражения / The Darkest Minds [Фантастика, триллер, 2018] UHD BDRemux 2160p, Dub [Лицензия] [4K]

salma3

0 | 0

50.06 ГБ

В этой теме нет новых непрочитанных сообщений. Хантер Киллер / Hunter Killer [Боевик, триллер, 2018] UHD BDRemux 2160p, Dub [Лицензия] [4K]

salma3

0 | 0

59.35 ГБ

В этой теме нет новых непрочитанных сообщений. Бэтмен возвращается / Batman Returns [Фэнтези, боевик, 1992] UHD BDRemux 2160p, Dub [Лицензия] [4K]

salma3

0 | 0

67.96 ГБ


Начать новую тему Ответить на тему  [ 1 сообщение ] 




Для Мосгорсуда, Роскомнадзора и рекламодателей:: rstracker[собака]yandex.ru
cron