COVID-19 - Последняя информация о коронавирусе на сайте Минздрава




Торрент файл
скачать торрент магнет ссылка Добавлен: 05 июл 2019, 20:49
Размер: 9.34 ГБ
Сидеров: 0
Личеров: 0
Статус: (salma3)
Автор

СообщениеДобавлено: 05 июл 2019, 20:49 

Не в сети
Супермодератор
Аватара пользователя
Дата регистрации:
15 фев 2012, 16:44
Возраст: 31
Спасибо: 8281 / 2148
Сообщения: 96721
Год выпуска: 1969
Жанр: Детектив, триллер, драма
Режиссер: Рене Клеман

В ролях: Чарльз Бронсон, Марлен Жобер, Анни Корди, Джилл Айрленд, Жан Гавен, Коринн Маршан, Эллен Баль, Габриэле Тинти, Жан Пиа, Стив Экхардт

О фильме:
Юная и немного инфантильная Мели становится жертвой жестокого преступника, который проникает к ней в дом и насилует ее. Очнувшись, она обнаруживает, что он все еще находится в ее доме. Девушка убивает негодяя, уничтожает все следы его присутствия и избавляется от трупа. Однако, возврата к прежней сонной жизни уже не будет — в городке появляется загадочный американец Гарри Добс, который разыскивает убитого и особенно интересуется судьбой бывшей при нем сумки. Ушлый незнакомец убежден, что Мели и ее муж причастны к исчезновению и сумки и ее владельца, и полон решимости добиться от нее признания, используя свои необычные методы...



Страна: Франция, Италия
Продолжительность: 01:59:37
Перевод: Профессиональный (двухголосый закадровый) + авторский (одноголосый закадровый)
Субтитры: русские

Файл
Формат: MKV
Тип релиза: BDRip 720p |SbR|
Видео: AVC, 1280x688 (1.860), 8800 kbps, 23,976 fps, 0,417 bpp
Аудио: русский / AC3/ 2.0 / 48 kHz / 192 kbps |DVO|
Аудио 2: русский / AC3 / 2.0 / 48 kHz / 192 kbps / 16 bit |А. Михалев| AVO
Аудио 3: русский / AC3 / 2.0 / 48 kHz / 192 kbps / 16 bit |А. Гаврилов| AVO
Аудио 4: русский / DTS / 5.1 / 48 kHz / 1509 kbps / 24 bit |А. Матвеев| AVO
Аудио 5: французский /FLAC / 2.0 / 48 kHz / 285 kbps / 16 bit
Формат субтитров: softsub (SRT)

General
Unique ID : 218107134186178117722970425714595985448 (0xA415E7F4F2C437F9821A0A0E988DF828)
Complete name : G:TorrentRider.on.the.Rain.1968.720p.BluRay.4xRus.Fre.HDCLUB-SbR.mkv
Format : Matroska
Format version : Version 4 / Version 2
File size : 9.34 GiB
Duration : 1 h 59 min
Overall bit rate mode : Variable
Overall bit rate : 11.2 Mb/s
Encoded date : UTC 2017-08-29 07:10:48
Writing application : mkvmerge v14.0.0 ('Flow') 64bit
Writing library : libebml v1.3.4 + libmatroska v1.4.5
Cover : Yes
Attachments : cover.jpg

Video
ID : 1
Format : AVC
Format/Info : Advanced Video Codec
Format profile : High@L4.1
Format settings, CABAC : Yes
Format settings, ReFrames : 9 frames
Codec ID : V_MPEG4/ISO/AVC
Duration : 1 h 59 min
Bit rate : 8 800 kb/s
Width : 1 280 pixels
Height : 688 pixels
Display aspect ratio : 1.85:1
Frame rate mode : Constant
Frame rate : 23.976 (24000/1001) FPS
Color space : YUV
Chroma subsampling : 4:2:0
Bit depth : 8 bits
Scan type : Progressive
Bits/(Pixel*Frame) : 0.417
Stream size : 7.35 GiB (79%)
Writing library : x264 core 152 r2851+58 429492e t_mod_Custom [8-bit@all X86_64]
Encoding settings : cabac=1 / ref=9 / deblock=1:-3:-3 / analyse=0x3:0x133 / me=umh / subme=10 / psy=1 / fade_compensate=0.00 / psy_rd=1.05:0.00 / mixed_ref=1 / me_range=32 / chroma_me=1 / trellis=2 / 8x8dct=1 / cqm=0 / deadzone=21,11 / fast_pskip=0 / chroma_qp_offset=-2 / threads=6 / lookahead_threads=1 / sliced_threads=0 / nr=0 / decimate=1 / interlaced=0 / bluray_compat=0 / constrained_intra=0 / fgo=0 / bframes=12 / b_pyramid=2 / b_adapt=2 / b_bias=0 / direct=3 / weightb=1 / open_gop=0 / weightp=2 / keyint=250 / keyint_min=23 / scenecut=40 / intra_refresh=0 / rc_lookahead=60 / rc=crf / mbtree=0 / crf=16.2000 / qcomp=0.60 / qpmin=0:0:0 / qpmax=69:69:69 / qpstep=4 / vbv_maxrate=62500 / vbv_bufsize=78125 / crf_max=0.0 / nal_hrd=none / filler=0 / ip_ratio=1.40 / pb_ratio=1.30 / aq=1:0.65 / aq-sensitivity=10.00 / aq-factor=1.00:1.00:1.00 / aq2=0 / aq3=0
Language : English
Default : Yes
Forced : No
Color range : Limited
Color primaries : BT.709
Transfer characteristics : BT.709
Matrix coefficients : BT.709

Audio #1
ID : 2
Format : AC-3
Format/Info : Audio Coding 3
Format settings, Endianness : Big
Codec ID : A_AC3
Duration : 1 h 59 min
Bit rate mode : Constant
Bit rate : 192 kb/s
Channel(s) : 2 channels
Channel positions : Front: L R
Sampling rate : 48.0 kHz
Frame rate : 31.250 FPS (1536 spf)
Bit depth : 16 bits
Compression mode : Lossy
Stream size : 164 MiB (2%)
Title : DVO
Language : Russian
Service kind : Complete Main
Default : Yes
Forced : No

Audio #2
ID : 3
Format : AC-3
Format/Info : Audio Coding 3
Format settings, Endianness : Big
Codec ID : A_AC3
Duration : 1 h 59 min
Bit rate mode : Constant
Bit rate : 192 kb/s
Channel(s) : 2 channels
Channel positions : Front: L R
Sampling rate : 48.0 kHz
Frame rate : 31.250 FPS (1536 spf)
Bit depth : 16 bits
Compression mode : Lossy
Stream size : 164 MiB (2%)
Title : А. Михалев
Language : Russian
Service kind : Complete Main
Default : No
Forced : No

Audio #3
ID : 4
Format : AC-3
Format/Info : Audio Coding 3
Format settings, Endianness : Big
Codec ID : A_AC3
Duration : 1 h 59 min
Bit rate mode : Constant
Bit rate : 192 kb/s
Channel(s) : 2 channels
Channel positions : Front: L R
Sampling rate : 48.0 kHz
Frame rate : 31.250 FPS (1536 spf)
Bit depth : 16 bits
Compression mode : Lossy
Stream size : 164 MiB (2%)
Title : А. Гаврилов
Language : Russian
Service kind : Complete Main
Default : No
Forced : No

Audio #4
ID : 5
Format : DTS
Format/Info : Digital Theater Systems
Mode : 16
Format settings, Endianness : Big
Codec ID : A_DTS
Duration : 1 h 59 min
Bit rate mode : Constant
Bit rate : 1 509 kb/s
Channel(s) : 2 channels
Channel positions : Front: L R
Sampling rate : 48.0 kHz
Frame rate : 93.750 FPS (512 spf)
Bit depth : 24 bits
Compression mode : Lossy
Stream size : 1.26 GiB (14%)
Title : А. Матвеев
Language : Russian
Default : No
Forced : No

Audio #5
ID : 6
Format : FLAC
Format/Info : Free Lossless Audio Codec
Codec ID : A_FLAC
Duration : 1 h 59 min
Bit rate mode : Variable
Bit rate : 285 kb/s
Channel(s) : 2 channels
Channel positions : Front: L R
Sampling rate : 48.0 kHz
Frame rate : 11.719 FPS (4096 spf)
Bit depth : 16 bits
Stream size : 244 MiB (3%)
Writing library : libFLAC 1.2.1 (UTC 2007-09-17)
Language : French
Default : No
Forced : No

Text
ID : 7
Format : UTF-8
Codec ID : S_TEXT/UTF8
Codec ID/Info : UTF-8 Plain Text
Duration : 1 h 56 min
Bit rate : 57 b/s
Count of elements : 1058
Stream size : 49.6 KiB (0%)
Language : Russian
Default : No
Forced : No

Menu
00:00:00.000 : en:00:00:00.000
00:03:13.568 : en:00:03:13.568
00:07:10.971 : en:00:07:10.971
00:15:20.836 : en:00:15:20.836
00:25:30.903 : en:00:25:30.903
00:32:26.402 : en:00:32:26.402
00:35:15.612 : en:00:35:15.612
00:42:58.992 : en:00:42:58.992
00:46:51.682 : en:00:46:51.682
00:50:28.108 : en:00:50:28.108
00:57:29.653 : en:00:57:29.653
01:08:34.652 : en:01:08:34.652
01:14:30.882 : en:01:14:30.882
01:26:11.541 : en:01:26:11.541
01:44:48.657 : en:01:44:48.657
01:56:42.161 : en:01:56:42.161


_________________
Проголосуй за трекер Открытый торрент трекер - RUS-MEDIA.ORG

Проголосуй Открытый торрент трекер - RUS-MEDIA.ORG


Скачать книги и аудио книги через торрент


Вернуться к началу
 Профиль Отправить личное сообщение  
 
   Похожие торренты   Автор   Торрент   Размер 
В этой теме нет новых непрочитанных сообщений. Шанхай / Shanghai [триллер, драма, детектив, 2010] BDRip 720p, Dvo

salma3

0 | 0

4.34 ГБ

В этой теме нет новых непрочитанных сообщений. Шанхай / Shanghai [триллер, драма, мелодрама, детектив, военный, 2010] BDRip 720p, Dvo

NTL

0 | 0

4.36 ГБ

В этой теме нет новых непрочитанных сообщений. Победители / Winning [Боевик, драма, спорт, 1969] BDRip, Dvo

salma3

0 | 0

2.06 ГБ

В этой теме нет новых непрочитанных сообщений. Победители / Winning [Боевик, драма, спорт, 1969] BDRip, Dvo

salma3

0 | 0

1.46 ГБ

В этой теме нет новых непрочитанных сообщений. Ателье моделей / Model Shop [драма, 1969] HDRip 720p, Dvo

salma3

0 | 0

2.31 ГБ

В этой теме нет новых непрочитанных сообщений. Счастливый конец / The Happy Ending [Драма, 1969] HDTVRip 720p, Dvo

salma3

0 | 0

2.79 ГБ

В этой теме нет новых непрочитанных сообщений. Треугольник / Triangle [Ужасы, триллер, детектив, 2009] BDRip 720p, Dvo

salma3

0 | 0

6.9 ГБ


Начать новую тему Ответить на тему  [ 1 сообщение ] 




Для Мосгорсуда, Роскомнадзора и рекламодателей:: rstracker[собака]yandex.ru
cron