Торрент файл
скачать торрент магнет ссылка Добавлен: 03 июл 2019, 15:49
Размер: 4.36 ГБ
Сидеров: 0
Личеров: 0
Статус: (salma3)
Автор

СообщениеДобавлено: 03 июл 2019, 15:49 

Информация о фильме
Название: Карты, деньги, два ствола
Оригинальное название: Lock, Stock and Two Smoking Barrels
Год выхода: 1998
Жанр: Триллер, комедия, криминал
Режиссер: Гай Ричи
Выпущено: Великобритания, Summit Entertainment
Продолжительность: 01:47:23
Перевод: Профессиональный многоголосый, Авторский одноголосый (Гоблин), Английский
В ролях: Николас Роу, Джейсон Флеминг, Стинг, Декстер Флетчер, Стивен Маркус, Стивен Макинтош, Ник Моран, Джейсон Стэтэм, Ник Марк, Чарли Форбс, Винни Джоунс, Ленни МакЛин, Питер МакНиколл, Фрэнк Харпер, Хагги Ливер, Ронни Фокс, Тони МакМэхон

Сюжет фильма
Четверо молодых парней накопили каждый по 25 тысяч фунтов, чтобы один из них мог сыграть в карты с опытным шулером и матерым преступником, известным по кличке Гарри-Топор. Парень в итоге проиграл 500 тысяч, на уплату долга ему дали неделю. В противном случае и ему и его «спонсорам» каждый день будут отрубать по пальцу, а потом… Чтобы выйти из положения, ребята решили ограбить бандитов, решивших ограбить трех «ботаников», выращивающих марихуану для местного наркобарона. Но на этом приключения четверки не заканчиваются…



Файл
Качество: BDRip 720p (DVD5) (исходник Blu-Ray Remux)
Видео: 1280x692, 4476 Кбит/сек, 23,976 кадр/сек, AVC, x264, High@L4.1, 1.85:1, 0.211 Бит/[Пиксели*Кадры], 2pass
Аудио 1: AC-3, 448 Кбит/сек, 6 канала(ов), 48,0 КГц - Многоголосый (Установлен по умолчанию)
Аудио 2: AC-3, 448 Кбит/сек, 6 канала(ов), 48,0 КГц - Одноголосый (Гоблин)
Аудио 3: AC-3, 448 Кбит/сек, 6 канала(ов), 48,0 КГц - Английский
Субтитры: Русские | Полные
Чаптеры: Есть


Format : Matroska
Format version : Version 4 / Version 2
File size : 4.36 GiB
Duration : 1h 47mn
Overall bit rate : 5 817 Kbps
Movie name : Карты, деньги, два ствола.(1998).BDRip.720p.(DVD5).[NoLimits-Team]
Encoded date : UTC 2013-03-29 11:41:07
Writing application : mkvmerge v6.0.0 ('Coming Up For Air') built on Jan 20 2013 09:52:00
Writing library : libebml v1.3.0 + libmatroska v1.4.0

Video
ID : 1
Format : AVC
Format/Info : Advanced Video Codec
Format profile : High@L4.1
Format settings, CABAC : Yes
Format settings, ReFrames : 9 frames
Codec ID : V_MPEG4/ISO/AVC
Duration : 1h 47mn
Bit rate : 4 476 Kbps
Width : 1 280 pixels
Height : 692 pixels
Display aspect ratio : 1.85:1
Frame rate mode : Constant
Frame rate : 23.976 fps
Color space : YUV
Chroma subsampling : 4:2:0
Bit depth : 8 bits
Scan type : Progressive
Bits/(Pixel*Frame) : 0.211
Stream size : 3.27 GiB (75%)
Title : Карты, деньги, два ствола.(1998).BDRip.720p.(DVD5).[NoLimits-Team]
Writing library : x264 core 130 r2273 b3065e6
Encoding settings : cabac=1 / ref=9 / deblock=1:0:0 / analyse=0x3:0x133 / me=umh / subme=11 / psy=1 / psy_rd=1.00:0.00 / mixed_ref=1 / me_range=64 / chroma_me=1 / trellis=2 / 8x8dct=1 / cqm=0 / deadzone=21,11 / fast_pskip=0 / chroma_qp_offset=-2 / threads=9 / lookahead_threads=2 / sliced_threads=0 / nr=0 / decimate=1 / interlaced=0 / bluray_compat=0 / constrained_intra=0 / bframes=14 / b_pyramid=2 / b_adapt=2 / b_bias=0 / direct=3 / weightb=1 / open_gop=0 / weightp=2 / keyint=240 / keyint_min=23 / scenecut=40 / intra_refresh=0 / rc_lookahead=60 / rc=2pass / mbtree=1 / bitrate=4476 / ratetol=1.0 / qcomp=0.60 / qpmin=0 / qpmax=69 / qpstep=4 / cplxblur=20.0 / qblur=0.5 / ip_ratio=1.40 / aq=1:1.00
Language : English
Default : Yes
Forced : No

Audio #1
ID : 2
Format : AC-3
Format/Info : Audio Coding 3
Mode extension : CM (complete main)
Format settings, Endianness : Big
Codec ID : A_AC3
Duration : 1h 47mn
Bit rate mode : Constant
Bit rate : 448 Kbps
Channel(s) : 6 channels
Channel positions : Front: L C R, Side: L R, LFE
Sampling rate : 48.0 KHz
Bit depth : 16 bits
Compression mode : Lossy
Stream size : 344 MiB (8%)
Title : Профессиональный многоголосый
Language : Russian
Default : Yes
Forced : No

Audio #2
ID : 3
Format : AC-3
Format/Info : Audio Coding 3
Mode extension : CM (complete main)
Format settings, Endianness : Big
Codec ID : A_AC3
Duration : 1h 47mn
Bit rate mode : Constant
Bit rate : 448 Kbps
Channel(s) : 6 channels
Channel positions : Front: L C R, Side: L R, LFE
Sampling rate : 48.0 KHz
Bit depth : 16 bits
Compression mode : Lossy
Stream size : 344 MiB (8%)
Title : Авторский одноголосый (Гоблин)
Language : Russian
Default : No
Forced : No

Audio #3
ID : 4
Format : AC-3
Format/Info : Audio Coding 3
Mode extension : CM (complete main)
Format settings, Endianness : Big
Codec ID : A_AC3
Duration : 1h 47mn
Bit rate mode : Constant
Bit rate : 448 Kbps
Channel(s) : 6 channels
Channel positions : Front: L C R, Side: L R, LFE
Sampling rate : 48.0 KHz
Bit depth : 16 bits
Compression mode : Lossy
Stream size : 344 MiB (8%)
Title : Английский
Language : English
Default : No
Forced : No

Text
ID : 5
Format : UTF-8
Codec ID : S_TEXT/UTF8
Codec ID/Info : UTF-8 Plain Text
Title : Русские (полные)
Language : Russian
Default : No
Forced : No

Menu
00:00:00.000 : :Chapter 01
00:05:00.000 : :Chapter 02
00:10:00.000 : :Chapter 03
00:15:00.000 : :Chapter 04
00:20:00.000 : :Chapter 05
00:25:00.000 : :Chapter 06
00:30:00.000 : :Chapter 07
00:35:00.000 : :Chapter 08
00:40:00.000 : :Chapter 09
00:45:00.000 : :Chapter 10
00:50:00.000 : :Chapter 11
00:55:00.000 : :Chapter 12
01:00:00.000 : :Chapter 13
01:05:00.000 : :Chapter 14
01:10:00.000 : :Chapter 15
01:15:00.000 : :Chapter 16
01:20:00.000 : :Chapter 17
01:25:00.000 : :Chapter 18
01:30:00.000 : :Chapter 19
01:35:00.000 : :Chapter 20
01:40:00.000 : :Chapter 21
01:45:00.000 : :Chapter 22



Вернуться к началу
  
 
   Похожие торренты   Автор   Торрент   Размер 
В этой теме нет новых непрочитанных сообщений. Деньги, деньги, еще деньги / Больше денег / Mo' Money [Комедия , 1992] WEB-DL 720p, Mvo

salma3

10 | 0

2.78 ГБ

В этой теме нет новых непрочитанных сообщений. Легкие деньги / Free Money [комедия, криминал, 1998] WEB-DLRip-AVC, Mvo

salma3

0 | 0

2.18 ГБ

В этой теме нет новых непрочитанных сообщений. Легкие деньги / Free Money [комедия, криминал, 1998] WEB-DLRip-AVC, Mvo

salma3

12 | 4

745.84 МБ

В этой теме нет новых непрочитанных сообщений. Бесплатные деньги / Money for Nothing [Драма, комедия, криминал, 1993] BDRip 720p, Dvo

salma3

0 | 0

2.23 ГБ

В этой теме нет новых непрочитанных сообщений. Легкие деньги / Good People [боевик, триллер, криминал, 2014] BDRip 720p, Dub

salma3

1 | 0

5.94 ГБ

В этой теме нет новых непрочитанных сообщений. Тюряга / Lock Up [боевик, драма, криминал, 1989] BDRip-AVC, Mvo

salma3

0 | 0

2.9 ГБ

В этой теме нет новых непрочитанных сообщений. Шулера / Rounders [драма, криминал, 1998] BDRip 720p, Mvo

salma3

1 | 0

6.56 ГБ


Начать новую тему Ответить на тему  [ 1 сообщение ] 




Для Мосгорсуда, Роскомнадзора и рекламодателей:: rstracker[собака]yandex.ru
cron