COVID-19 - Последняя информация о коронавирусе на сайте Минздрава




Торрент файл
скачать торрент магнет ссылка Добавлен: 01 июл 2019, 20:03
Размер: 11.14 ГБ
Сидеров: 0
Личеров: 0
Статус: (salma3)
Автор

СообщениеДобавлено: 01 июл 2019, 20:03 

Не в сети
Супермодератор
Аватара пользователя
Дата регистрации:
15 фев 2012, 16:44
Возраст: 31
Спасибо: 8273 / 2148
Сообщения: 96529
Год выхода: 2008
Жанр: Комедия, драма, семейный
Режиссер: Дэвид Франкель

В ролях: Оуэн Уилсон, Дженнифер Энистон, Эрик Дэйн, Кэтлин Тёрнер, Алан Аркин, Натан Гэмбл, Хейли Беннетт, Кларк Питерс, Финли Якобсен, Люси Мерьям

О фильме:
Марли и я - это потрясающий фильм о собаке-лабрадоре, с которой никогда нельзя чувствовать себя спокойно. Про собак снято множество фильмов, и все они в той или иной мере пользуются популярностью. Сейчас в довесок к очаровательной собаке в фильме "Марли и я" появится и очаровательная Дженнифер Энистон, любимица поклонников сериала Друзья. Трейлер фильма недвусмысленно обещает множество забавных ситуаций и приятное времяпрепровождение. Фильм основан на одноименной книге мемуаров журналиста Джона Грогана о том, как это - жить с самой вредной собакой на земле…



Страна: США
Продолжительность: 01:55:34
Перевод: Дублированный

Файл
Кодек: H.264
Качество: BDRip 720p
Видео: MPEG-4 AVC, 11.4 Мбит/с, 1280x544, 23.976 Кадр/с
Звук:
Aудио#1: Russian: 48 kHz, AC3, 3/2 (L,C,R,l,r) + LFE ch, ~448.00 kbps avg |Дубляж, Blu-ray EUR|
Aудио#2: Ukrainian: 48 kHz, AC3, 3/2 (L,C,R,l,r) + LFE ch, ~448.00 kbps avg |Дубляж, Blu-ray EUR|
Aудио#3: English: 48 kHz, DTS, 3/2 (L,C,R,l,r) + LFE ch, ~1509.00 kbps avg
Субтитры: Russian (Forced, Full-length), Ukrainian (Full-length), English (Full-length)

Семпл



x264 [info]: frame I:1367 Avg QP:15.78 size:167349
x264 [info]: frame P:34641 Avg QP:17.17 size: 89426
x264 [info]: frame B:130264 Avg QP:18.18 size: 50267

Формат : Matroska
Версия формата : Version 4
Размер файла : 11,1 Гбайт
Продолжительность : 1 ч. 55 м.
Общий поток : 13,8 Мбит/сек
Название фильма : Marley.&.Me.2008.x264.BDRip.720p.Rus.Ukr.Eng.ExKinoRay
Дата кодирования : UTC 2019-07-01 13:52:46
Программа кодирования : mkvmerge v7.9.0 ('Birds') 64bit
Библиотека кодирования : libebml v1.3.1 + libmatroska v1.4.2

Видео
Идентификатор : 1
Формат : AVC
Формат/Информация : Advanced Video Codec
Профиль формата : High@L4.1
Настройки формата : CABAC / 11 Ref Frames
Параметр CABAC формата : Да
Параметр RefFrames формата : 11 кадров
Идентификатор кодека : V_MPEG4/ISO/AVC
Продолжительность : 1 ч. 55 м.
Битрейт : 11,4 Мбит/сек
Ширина : 1280 пикселей
Высота : 544 пикселя
Соотношение сторон : 2,35:1
Режим частоты кадров : Постоянный
Частота кадров : 23,976 (24000/1001) кадра/сек
Цветовое пространство : YUV
Субдискретизация насыщенности : 4:2:0
Битовая глубина : 8 бит
Тип развёртки : Прогрессивная
Бит/(Пиксели*Кадры) : 0.682
Размер потока : 9,20 Гбайт (83%)
Заголовок : Marley.&.Me.2008.x264.BDRip.720p.Rus.Ukr.Eng.ExKinoRay
Библиотека кодирования : x264 core 157 r2969 d4099dd
Настройки программы : cabac=1 / ref=11 / deblock=1:-3:-3 / analyse=0x3:0x113 / me=umh / subme=11 / psy=1 / psy_rd=0.95:0.00 / mixed_ref=1 / me_range=32 / chroma_me=1 / trellis=2 / 8x8dct=1 / cqm=0 / deadzone=21,11 / fast_pskip=0 / chroma_qp_offset=-2 / threads=6 / lookahead_threads=1 / sliced_threads=0 / nr=0 / decimate=0 / interlaced=0 / bluray_compat=0 / constrained_intra=0 / bframes=9 / b_pyramid=2 / b_adapt=2 / b_bias=0 / direct=3 / weightb=1 / open_gop=0 / weightp=2 / keyint=250 / keyint_min=23 / scenecut=40 / intra_refresh=0 / rc=crf / mbtree=0 / crf=15.7 / qcomp=0.60 / qpmin=0 / qpmax=69 / qpstep=4 / ip_ratio=1.30 / pb_ratio=1.20 / aq=3:0.80
Язык : English
Default : Да
Forced : Нет

Аудио #1
Идентификатор : 2
Формат : AC-3
Формат/Информация : Audio Coding 3
Коммерческое название : Dolby Digital
Идентификатор кодека : A_AC3
Продолжительность : 1 ч. 55 м.
Вид битрейта : Постоянный
Битрейт : 448 Кбит/сек
Каналы : 6 каналов
Channel layout : L R C LFE Ls Rs
Частота : 48,0 КГц
Частота кадров : 31,250 кадров/сек (1536 SPF)
Битовая глубина : 16 бит
Метод сжатия : С потерями
Размер потока : 370 Мбайт (3%)
Заголовок : Дублированный (BD EUR)
Язык : Russian
ServiceKind/String : Complete Main
Default : Да
Forced : Нет

Аудио #2
Идентификатор : 3
Формат : AC-3
Формат/Информация : Audio Coding 3
Коммерческое название : Dolby Digital
Идентификатор кодека : A_AC3
Продолжительность : 1 ч. 55 м.
Вид битрейта : Постоянный
Битрейт : 448 Кбит/сек
Каналы : 6 каналов
Channel layout : L R C LFE Ls Rs
Частота : 48,0 КГц
Частота кадров : 31,250 кадров/сек (1536 SPF)
Битовая глубина : 16 бит
Метод сжатия : С потерями
Размер потока : 370 Мбайт (3%)
Заголовок : Дублированный (BD EUR)
Язык : Ukrainian
ServiceKind/String : Complete Main
Default : Нет
Forced : Нет

Аудио #3
Идентификатор : 4
Формат : DTS
Формат/Информация : Digital Theater Systems
Идентификатор кодека : A_DTS
Продолжительность : 1 ч. 55 м.
Вид битрейта : Постоянный
Битрейт : 1509 Кбит/сек
Каналы : 6 каналов
Channel layout : C L R Ls Rs LFE
Частота : 48,0 КГц
Частота кадров : 93,750 кадра/сек (512 SPF)
Битовая глубина : 24 бит
Метод сжатия : С потерями
Размер потока : 1,22 Гбайт (11%)
Заголовок : DTS Audio 5.1 ch 1509 Kbps
Язык : English
Default : Нет
Forced : Нет

Текст #1
Идентификатор : 5
Формат : UTF-8
Идентификатор кодека : S_TEXT/UTF8
Идентификатор кодека/Информация : UTF-8 Plain Text
Продолжительность : 1 ч. 45 м.
Битрейт : 32 бит/сек
ElementCount : 308
Размер потока : 25,3 Кбайт (0%)
Заголовок : Forced
Язык : Russian
Default : Нет
Forced : Нет

Текст #2
Идентификатор : 6
Формат : UTF-8
Идентификатор кодека : S_TEXT/UTF8
Идентификатор кодека/Информация : UTF-8 Plain Text
Продолжительность : 1 ч. 51 м.
Битрейт : 127 бит/сек
ElementCount : 1631
Размер потока : 104 Кбайт (0%)
Заголовок : Full-length
Язык : Russian
Default : Нет
Forced : Нет

Текст #3
Идентификатор : 7
Формат : UTF-8
Идентификатор кодека : S_TEXT/UTF8
Идентификатор кодека/Информация : UTF-8 Plain Text
Продолжительность : 1 ч. 51 м.
Битрейт : 128 бит/сек
ElementCount : 1628
Размер потока : 105 Кбайт (0%)
Заголовок : Full-length
Язык : Ukrainian
Default : Нет
Forced : Нет

Текст #4
Идентификатор : 8
Формат : UTF-8
Идентификатор кодека : S_TEXT/UTF8
Идентификатор кодека/Информация : UTF-8 Plain Text
Продолжительность : 1 ч. 51 м.
Битрейт : 79 бит/сек
ElementCount : 1618
Размер потока : 65,2 Кбайт (0%)
Заголовок : Full-length
Язык : English
Default : Нет
Forced : Нет

Меню
00:00:00.000 : en:00:00:00.000
00:03:49.729 : en:00:03:49.729
00:06:25.802 : en:00:06:25.802
00:10:12.737 : en:00:10:12.737
00:12:03.598 : en:00:12:03.598
00:15:56.247 : en:00:15:56.247
00:17:46.565 : en:00:17:46.565
00:20:49.165 : en:00:20:49.165
00:22:48.200 : en:00:22:48.200
00:26:09.109 : en:00:26:09.109
00:27:51.628 : en:00:27:51.628
00:32:16.017 : en:00:32:16.017
00:38:29.140 : en:00:38:29.140
00:40:13.995 : en:00:40:13.995
00:44:12.984 : en:00:44:12.984
00:46:35.126 : en:00:46:35.126
00:50:00.706 : en:00:50:00.706
00:54:45.324 : en:00:54:45.324
00:57:08.967 : en:00:57:08.967
01:00:57.487 : en:01:00:57.487
01:06:18.099 : en:01:06:18.099
01:10:13.793 : en:01:10:13.793
01:12:27.385 : en:01:12:27.385
01:15:24.603 : en:01:15:24.603
01:18:11.020 : en:01:18:11.020
01:21:55.202 : en:01:21:55.202
01:27:40.380 : en:01:27:40.380
01:37:45.485 : en:01:37:45.485
01:40:15.801 : en:01:40:15.801
01:44:10.995 : en:01:44:10.995
01:48:35.342 : en:01:48:35.342
01:52:15.354 : en:01:52:15.354



Релиз от:


_________________
Проголосуй за трекер Открытый торрент трекер - RUS-MEDIA.ORG

Проголосуй Открытый торрент трекер - RUS-MEDIA.ORG


Скачать книги и аудио книги через торрент


Вернуться к началу
 Профиль Отправить личное сообщение  
 
   Похожие торренты   Автор   Торрент   Размер 
В этой теме нет новых непрочитанных сообщений. Марли и я / Marley & Me [Комедия, драма, семейный, 2008] BDRip-AVC, Dub

salma3

0 | 0

3.89 ГБ

В этой теме нет новых непрочитанных сообщений. The Gangbang of Marley Brinx / Групповуха Марли Бринкс (Jules Jordan Video) [2019 г., Gangbang, Gonzo, Anal, Double Penetration, Interracial, DVDRip]

Budulai

0 | 0

1.22 ГБ

В этой теме нет новых непрочитанных сообщений. Астерикс на олимпийских играх / Asterix aux jeux olympiques [Комедия, приключения, семейный, 2008] BDRip 720p, Dub

NTL

2 | 0

4.36 ГБ

В этой теме нет новых непрочитанных сообщений. Как прогулять школу с пользой / L'ecole buissonniere [Драма, комедия, семейный, 2017] BDRip 720p, Dub [iTunes]

salma3

0 | 0

5.13 ГБ

В этой теме нет новых непрочитанных сообщений. Город Эмбер: Побег / City of Ember [фантастика, приключения, семейный, 2008] BDRip 720p, Dub

salma3

0 | 0

3.13 ГБ

В этой теме нет новых непрочитанных сообщений. Фердинанд / Ferdinand [Семейный, комедия, мультфильм, 2017] BDRip 720p, Dub [Лицензия]

salma3

31 | 60

6.02 ГБ

В этой теме нет новых непрочитанных сообщений. Бетховен 2 / Beethoven's 2nd [мелодрама, комедия, семейный, 1993] BDRip 720p, Dub

salma3

0 | 0

7.08 ГБ


Начать новую тему Ответить на тему  [ 1 сообщение ] 




Для Мосгорсуда, Роскомнадзора и рекламодателей:: rstracker[собака]yandex.ru
cron