Торрент файл
скачать торрент магнет ссылка Добавлен: 30 июн 2019, 11:00
Размер: 7.05 ГБ
Сидеров: 0
Личеров: 0
Статус: (salma3)
Автор

СообщениеДобавлено: 30 июн 2019, 11:00 

Не в сети
Супермодератор
Аватара пользователя
Дата регистрации:
15 фев 2012, 16:44
Возраст: 32
Спасибо: 8320 / 2148
Сообщения: 97229
Год выхода: 2001
Жанр: драма
Режиссер: Катрин Брейя

В ролях: Анаи Ребу, Роксана Мескида, Либеро Де Риенцо, Арсинэ Ханджян, Ромен Гупиль, Лаура Бетти, Альбер Гольдберг, Одетт Барриере, Энн Маттийссе, Пьер Ренверсо

О фильме:
Лето, море, каникулы, родители, первая любовь. Анаис и ее старшая сестра Елена ни в чем не похожи друг на друга. Анаис — пухленькая и умненькая. Елена дьявольски красива в свои 15 лет. Это возраст первого сексуального опыта. Анаис постигает эти азы, наблюдая за сестрой…
18+



Страна: Франция, Италия
Продолжительность: 01:26:37
Перевод: Авторский (Владимир Штейн)

Файл
Кодек: H.264
Качество: BDRip 1080p
Видео: AVC, 1920x1032 (1.860:1), 23.976 fps ~ 9955 Kbps
Звук:
AC3, 48 KHz, 2 ch ~ 192 Kb/s (русский)
DTS, 48 KHz, 6 ch ~ 1510 Kb/s (французский)
Субтитры: английские

Общее
Уникальный идентификатор : 172786717405666204786277393592598032355 (0x81FD82E4D845DC30B753AC5F304E6FE3)
Полное имя : Q:TorFFat.Girl.2001.1080p.Criterion.mkv
Формат : Matroska
Версия формата : Version 2
Размер файла : 7,05 Гбайт
Продолжительность : 1 ч. 26 м.
Общий поток : 11,7 Мбит/сек
Название фильма : À ma soeur! 2001 - Criterion Blu-ray
Дата кодирования : UTC 2019-06-30 04:27:33
Программа кодирования : mkvmerge v5.4.0 ('Piper') built on Mar 10 2012 13:34:39
Библиотека кодирования : libebml v1.2.3 + libmatroska v1.3.0

Видео
Идентификатор : 1
Формат : AVC
Формат/Информация : Advanced Video Codec
Профиль формата : High@L4.1
Параметр CABAC формата : Да
Параметр ReFrames формата : 4 кадра
Идентификатор кодека : V_MPEG4/ISO/AVC
Продолжительность : 1 ч. 26 м.
Битрейт : 9956 Кбит/сек
Ширина : 1920 пикселей
Высота : 1032 пикселя
Соотношение сторон : 1,860
Частота кадров : 23,976 кадра/сек
Цветовое пространство : YUV
Субдискретизация насыщенности : 4:2:0
Битовая глубина : 8 бит
Тип развёртки : Прогрессивная
Бит/(Пиксели*Кадры) : 0.210
Размер потока : 5,88 Гбайт (83%)
Заголовок : x264 | 9956 Kbps | 23.976 fps | 1.86:1
Библиотека кодирования : x264 core 142 r2431 ac76440
Настройки программы : cabac=1 / ref=4 / deblock=1:-3:-3 / analyse=0x3:0x133 / me=umh / subme=9 / psy=1 / psy_rd=1.00:0.00 / mixed_ref=1 / me_range=24 / chroma_me=1 / trellis=1 / 8x8dct=1 / cqm=0 / deadzone=21,11 / fast_pskip=0 / chroma_qp_offset=-2 / threads=4 / lookahead_threads=1 / sliced_threads=0 / nr=0 / decimate=0 / interlaced=0 / bluray_compat=0 / constrained_intra=0 / bframes=4 / b_pyramid=2 / b_adapt=2 / b_bias=0 / direct=1 / weightb=1 / open_gop=0 / weightp=2 / keyint=230 / keyint_min=23 / scenecut=40 / intra_refresh=0 / rc_lookahead=60 / rc=2pass / mbtree=1 / bitrate=9956 / ratetol=1.0 / qcomp=0.60 / qpmin=0 / qpmax=69 / qpstep=4 / cplxblur=20.0 / qblur=0.5 / vbv_maxrate=40000 / vbv_bufsize=30000 / nal_hrd=none / filler=0 / ip_ratio=1.40 / aq=1:1.00
Язык : French
Default : Да
Forced : Нет

Аудио #1
Идентификатор : 2
Формат : AC-3
Формат/Информация : Audio Coding 3
Расширение режима : CM (complete main)
Идентификатор кодека : A_AC3
Продолжительность : 1 ч. 26 м.
Вид битрейта : Постоянный
Битрейт : 192 Кбит/сек
Каналы : 2 канала
Расположение каналов : Front: L R
Частота : 48,0 КГц
Битовая глубина : 16 бит
Метод сжатия : С потерями
Размер потока : 119 Мбайт (2%)
Язык : Russian
Default : Нет
Forced : Нет

Аудио #2
Идентификатор : 3
Формат : DTS
Формат/Информация : Digital Theater Systems
Идентификатор кодека : A_DTS
Продолжительность : 1 ч. 26 м.
Вид битрейта : Постоянный
Битрейт : 1510 Кбит/сек
Каналы : 6 каналов
Расположение каналов : Front: L C R, Side: L R, LFE
Частота : 48,0 КГц
Битовая глубина : 24 бит
Метод сжатия : С потерями
Размер потока : 935 Мбайт (13%)
Заголовок : DTS | 1509 Kbps | 24 bits | 48 KHz | 6 chan
Язык : French
Default : Нет
Forced : Нет

Текст
Идентификатор : 4
Формат : VobSub
Режим смешивания : zlib
Идентификатор кодека : S_VOBSUB
Идентификатор кодека/Информация : The same subtitle format used on DVDs
Язык : English
Default : Нет
Forced : Нет

Меню
00:00:00.000 : :00:00:00.000
00:01:34.219 : :00:01:34.219
00:03:32.170 : :00:03:32.170
00:08:42.063 : :00:08:42.063
00:10:47.564 : :00:10:47.564
00:13:44.866 : :00:13:44.866
00:33:08.778 : :00:33:08.778
00:39:36.291 : :00:39:36.291
00:45:14.211 : :00:45:14.211
00:47:09.910 : :00:47:09.910
00:51:31.130 : :00:51:31.130
00:58:53.071 : :00:58:53.071
01:01:30.061 : :01:01:30.061
01:03:33.727 : :01:03:33.727
01:06:19.684 : :01:06:19.684
01:10:52.290 : :01:10:52.290
01:15:16.554 : :01:15:16.554
01:23:57.282 : :01:23:57.282


_________________
Проголосуй за трекер Открытый торрент трекер - RUS-MEDIA.ORG

Проголосуй Открытый торрент трекер - RUS-MEDIA.ORG


Вернуться к началу
 Профиль Отправить личное сообщение  
 
   Похожие торренты   Автор   Торрент   Размер 
В этой теме нет новых непрочитанных сообщений. Свет моей жизни / Light of My Life [Драма, фантастика, 2019] BDRip 1080p, Dub [iTunes]

K15

7 | 5

15.16 ГБ

В этой теме нет новых непрочитанных сообщений. [PornHub.com] LadyOfTheDream - Дал своей младшей сестре нимфоманке поиграть со своим членом / Gave His Younger Sister a Nymphomaniac to Play With His Cock [2020 г., CAMRip 1080p]

Serlock

21 | 0

743.27 МБ

В этой теме нет новых непрочитанных сообщений. Плохой парень / Nabbeun namja (Ким Ки Дук) [2001 г., драма, BDRip 1080p] P2

zorgi

0 | 0

11.79 ГБ

В этой теме нет новых непрочитанных сообщений. Кокаин / Blow [драма, криминал, биография, 2001] BDRip-HEVC 1080p, Dub

salma3

7 | 0

12.21 ГБ

В этой теме нет новых непрочитанных сообщений. Малхолланд Драйв / Mulholland Dr. [триллер, драма, детектив, 2001 ] BDRip 1080p, Dub

zorgi

1 | 0

18.95 ГБ

В этой теме нет новых непрочитанных сообщений. Свет моей жизни / Light of My Life [Драма, 2019] BDRip, Dub [iTunes]

salma3

4 | 1

1.47 ГБ

В этой теме нет новых непрочитанных сообщений. Поцелуй дракона / Kiss of the Dragon [Боевик, триллер, драма, 2001] BDRip 1080p, Dub

salma3

0 | 0

10.26 ГБ


Начать новую тему Ответить на тему  [ 1 сообщение ] 




Для Мосгорсуда, Роскомнадзора и рекламодателей:: rstracker[собака]yandex.ru
cron