COVID-19 - Последняя информация о коронавирусе на сайте Минздрава




Торрент файл
скачать торрент магнет ссылка Добавлен: 22 июн 2019, 20:39
Размер: 8.31 ГБ
Сидеров: 0
Личеров: 0
Статус: (salma3)
Автор

СообщениеДобавлено: 22 июн 2019, 20:39 

Информация о фильме
Название: Царь скорпионов
Оригинальное название: The Scorpion King
Год выхода: 2002
Жанр: фэнтези, боевик, триллер, приключения
Режиссер: Чак Рассел
В ролях: Дуэйн Джонсон, Стивен Брэнд, Майкл Кларк Дункан, Келли Ху, Бернард Хилл, Грант Хеслов, Питер Фачинелли, Ральф Мёллер, Брэнском Ричмонд, Роджер Рис

О фильме: Эта история произошла 5 тыс. лет назад в Египте, еще задолго до постройки первых пирамид. Злой правитель и могущественный воин Мемнон решил поработить все народы, живущие в пустыне. Со своей многочисленной армией Мемнон выигрывает одно сражение за другим. Удача сопутствует жестокому злодею, потому что все злодеяния Мемнон совершает, опираясь на предсказания своего провидца. Осталась только горстка непокорных народов в пустыне, которые еще противостоят власти Мемнона.
Немногие оставшиеся племена нанимают воина акадца Метаеса — человека убивающего за деньги — чтобы тот убил провидца Мемнона. Оказавшись во вражеском лагере, Метаес к своему удивлению обнаруживает, что ясновидец — это красивая молодая женщина Кассандра. Он оставляет ее в живых и берет с собой в пустыню, чтобы выманить Мемнона из его города-крепости Гоморры. Единственное, что может успокоить теперь Метаеса — это смерть Мемнона…



Страна: США, Германия, Бельгия
Продолжительность: 01:31:22
Перевод: Профессиональный дублированный
Субтитры: Русские полные, английские полные

Файл
Качество: UHD BDRip 1080p
Формат: Matroska
Видео: MPEG-4 AVC, 1920х816, 12.0 Mbps, 23.976 fps
Аудио #1: AC3, 6 ch, 384 kbps | Russian | Дубляж
Аудио #2: AC3, 6 ch, 640 kbps | English | Оригинал
Формат субтитров: softsub (SRT)
Семпл


General
Unique ID : 273749584187453755264013977222727566495 (0xCDF2408C936A9DB4E01297B9519F849F)
Complete name : The Scorpion King (2002) UHD BDRip 1080p.mkv
Format : Matroska
Format version : Version 4
File size : 8.31 GiB
Duration : 1 h 31 min
Overall bit rate : 13.0 Mb/s
Movie name : The Scorpion King (2002)
Encoded date : UTC 2019-06-22 13:47:35
Writing application : mkvmerge v34.0.0 ('Sight and Seen') 64-bit
Writing library : libebml v1.3.7 + libmatroska v1.5.0
Attachments : poster.jpg

Video
ID : 1
Format : AVC
Format/Info : Advanced Video Codec
Format profile : High@L4.1
Format settings : CABAC / 5 Ref Frames
Format settings, CABAC : Yes
Format settings, Reference : 5 frames
Codec ID : V_MPEG4/ISO/AVC
Duration : 1 h 31 min
Bit rate : 12.0 Mb/s
Width : 1 920 pixels
Height : 816 pixels
Display aspect ratio : 2.35:1
Frame rate mode : Constant
Frame rate : 23.976 (24000/1001) FPS
Color space : YUV
Chroma subsampling : 4:2:0
Bit depth : 8 bits
Scan type : Progressive
Bits/(Pixel*Frame) : 0.319
Stream size : 7.66 GiB (92%)
Writing library : x264 core 157 r2970+2 0c2f928
Encoding settings : cabac=1 / ref=5 / deblock=1:-3:-3 / analyse=0x3:0x133 / me=umh / subme=11 / psy=1 / psy_rd=1.00:0.00 / mixed_ref=1 / me_range=32 / chroma_me=1 / trellis=2 / 8x8dct=1 / cqm=0 / deadzone=21,11 / fast_pskip=0 / chroma_qp_offset=-2 / threads=18 / lookahead_threads=4 / sliced_threads=0 / nr=0 / decimate=0 / interlaced=0 / bluray_compat=0 / constrained_intra=0 / bframes=10 / b_pyramid=2 / b_adapt=2 / b_bias=0 / direct=3 / weightb=1 / open_gop=0 / weightp=2 / keyint=240 / keyint_min=23 / scenecut=40 / intra_refresh=0 / rc_lookahead=60 / rc=2pass / mbtree=0 / bitrate=12000 / ratetol=1.0 / qcomp=0.60 / qpmin=0 / qpmax=69 / qpstep=4 / cplxblur=20.0 / qblur=0.5 / vbv_maxrate=50000 / vbv_bufsize=62500 / nal_hrd=none / filler=0 / ip_ratio=1.40 / pb_ratio=1.30 / aq=3:0.80
Language : English
Default : Yes
Forced : No
Color range : Limited
Color primaries : BT.709
Transfer characteristics : BT.709
Matrix coefficients : BT.709

Audio #1
ID : 2
Format : AC-3
Format/Info : Audio Coding 3
Commercial name : Dolby Digital
Codec ID : A_AC3
Duration : 1 h 31 min
Bit rate mode : Constant
Bit rate : 384 kb/s
Channel(s) : 6 channels
Channel layout : L R C LFE Ls Rs
Sampling rate : 48.0 kHz
Frame rate : 31.250 FPS (1536 SPF)
Bit depth : 16 bits
Compression mode : Lossy
Stream size : 251 MiB (3%)
Title : Dub
Language : Russian
Service kind : Complete Main
Default : Yes
Forced : No

Audio #2
ID : 3
Format : AC-3
Format/Info : Audio Coding 3
Commercial name : Dolby Digital
Codec ID : A_AC3
Duration : 1 h 31 min
Bit rate mode : Constant
Bit rate : 640 kb/s
Channel(s) : 6 channels
Channel layout : L R C LFE Ls Rs
Sampling rate : 48.0 kHz
Frame rate : 31.250 FPS (1536 SPF)
Bit depth : 16 bits
Compression mode : Lossy
Stream size : 418 MiB (5%)
Title : Original
Language : English
Service kind : Complete Main
Default : No
Forced : No

Text #1
ID : 4
Format : UTF-8
Codec ID : S_TEXT/UTF8
Codec ID/Info : UTF-8 Plain Text
Duration : 1 h 23 min
Bit rate : 49 b/s
Count of elements : 614
Stream size : 30.3 KiB (0%)
Title : Full
Language : Russian
Default : No
Forced : No

Text #2
ID : 5
Format : UTF-8
Codec ID : S_TEXT/UTF8
Codec ID/Info : UTF-8 Plain Text
Duration : 1 h 23 min
Bit rate : 30 b/s
Count of elements : 615
Stream size : 18.6 KiB (0%)
Title : Full
Language : English
Default : No
Forced : No

Menu
00:00:00.000 : en:The Kill and Akkadian
00:03:47.018 : en:The Rise of Memnon
00:05:03.011 : en:A Clan of Cutthroats
00:08:32.178 : en:Three Against Memnon
00:11:33.443 : en:Betrayed
00:15:58.541 : en:Fire Ants
00:21:33.709 : en:Gomorrah
00:27:39.157 : en:A Forced Hand
00:29:48.495 : en:On the Run
00:32:51.928 : en:Mathayus' Prisoner
00:39:10.765 : en:Killer in the Storm
00:45:15.004 : en:Blood of the Scorpion
00:50:59.515 : en:A Battle with Balthazar
00:56:11.118 : en:Visions of Death
01:03:41.109 : en:The Invaders
01:06:49.631 : en:A Simply Test
01:11:34.874 : en:Mathayus Strikes
01:19:40.150 : en:The Scorpion Sting
01:21:42.356 : en:Hail to the King
01:24:41.410 : en:End Titles



x264 [info]: frame I:929 Avg QP:17.63 size:211143
x264 [info]: frame P:34642 Avg QP:20.12 size:104868
x264 [info]: frame B:95881 Avg QP:21.98 size: 45802
x264 [info]: consecutive B-frames: 4.4% 6.7% 13.9% 21.8% 22.0% 22.5% 4.9% 0.7% 0.9% 1.8% 0.4%
x264 [info]: mb I I16..4: 3.5% 90.3% 6.2%
x264 [info]: mb P I16..4: 0.3% 17.5% 0.7% P16..4: 25.9% 38.4% 14.9% 1.9% 0.1% skip: 0.3%
x264 [info]: mb B I16..4: 0.0% 1.2% 0.1% B16..8: 47.9% 23.4% 4.9% direct: 8.2% skip:14.3% L0:47.7% L1:44.7% BI: 7.7%
x264 [info]: 8x8 transform intra:93.7% inter:58.7%
x264 [info]: direct mvs spatial:98.8% temporal:1.2%
x264 [info]: coded y,uvDC,uvAC intra: 97.9% 83.5% 48.8% inter: 54.9% 30.7% 6.7%
x264 [info]: i16 v,h,dc,p: 12% 10% 13% 65%
x264 [info]: i8 v,h,dc,ddl,ddr,vr,hd,vl,hu: 6% 5% 5% 12% 17% 15% 15% 13% 12%
x264 [info]: i4 v,h,dc,ddl,ddr,vr,hd,vl,hu: 6% 4% 2% 10% 19% 18% 17% 13% 12%
x264 [info]: i8c dc,h,v,p: 37% 23% 18% 22%
x264 [info]: Weighted P-Frames: Y:8.0% UV:4.4%
x264 [info]: ref P L0: 47.4% 11.4% 20.9% 10.3% 8.8% 1.2% 0.0%
x264 [info]: ref B L0: 74.0% 17.0% 7.2% 1.8%
x264 [info]: ref B L1: 94.4% 5.6%
x264 [info]: kb/s:11995.01




Скачать книги и аудио книги через торрент


Вернуться к началу
  
 
   Похожие торренты   Автор   Торрент   Размер 
В этой теме нет новых непрочитанных сообщений. Царь скорпионов / The Scorpion King [фэнтези, боевик, триллер, 2002] UHD BDRemux 2160p, Dub [4K]

salma3

0 | 0

49.53 ГБ

В этой теме нет новых непрочитанных сообщений. Царь скорпионов / The Scorpion King [Фэнтези, боевик, триллер, 2002] UHD Blu-Ray 2160p, Dub [4K] [Лицензия]

salma3

0 | 0

56.45 ГБ

В этой теме нет новых непрочитанных сообщений. Царь Скорпионов: Книга Душ / The Scorpion King: Book of Souls [Фэнтези, боевик, приключения, 2018] BDRip 1080p, Dub

salma3

3 | 9

7.79 ГБ

В этой теме нет новых непрочитанных сообщений. Царь скорпионов / The Scorpion King [фэнтези, боевик, триллер, 2002] WEB-DLRip 720p, Dub [Open Matte]

salma3

0 | 0

3.6 ГБ

В этой теме нет новых непрочитанных сообщений. Царь скорпионов 2: Восхождение воина / The Scorpion King: Rise of a Warrior [фэнтези, боевик, приключения, 2008] BDRip 720р, Dub+Sub

salma3

0 | 0

4.25 ГБ

В этой теме нет новых непрочитанных сообщений. Царь Скорпионов: Книга Душ / The Scorpion King: Book of Souls [Фэнтези, боевик, приключения, 2018] BDRemux 1080p, Dub

salma3

0 | 0

26.84 ГБ

В этой теме нет новых непрочитанных сообщений. Царь Скорпионов: Книга Душ / The Scorpion King: Book of Souls [Фэнтези, боевик, приключения, 2018] WEBRip, Dvo

salma3

51 | 58

1.43 ГБ


Начать новую тему Ответить на тему  [ 1 сообщение ] 




Для Мосгорсуда, Роскомнадзора и рекламодателей:: rstracker[собака]yandex.ru
cron