COVID-19 - Последняя информация о коронавирусе на сайте Минздрава




Торрент файл
скачать торрент магнет ссылка Добавлен: 20 июн 2019, 11:04
Размер: 49.53 ГБ
Сидеров: 0
Личеров: 0
Статус: (salma3)
Автор

СообщениеДобавлено: 20 июн 2019, 11:04 

Не в сети
Супермодератор
Аватара пользователя
Дата регистрации:
15 фев 2012, 16:44
Возраст: 32
Спасибо: 8298 / 2148
Сообщения: 97020
Год выхода: 2002
Жанр: фэнтези, боевик, триллер
Режиссер: Чак Рассел

В ролях: Дуэйн Джонсон, Стивен Брэнд, Майкл Кларк Дункан, Келли Ху, Бернард Хилл, Грант Хеслов, Питер Фасинелли, Ральф Мюллер, Брэнском Ричмонд, Роджер Рис


Эта история произошла 5 тыс. лет назад в Египте, еще задолго до постройки первых пирамид. Злой правитель и могущественный воин Мемнон решил поработить все народы, живущие в пустыне. Со своей многочисленной армией Мемнон выигрывает одно сражение за другим. Удача сопутствует жестокому злодею, потому что все злодеяния Мемнон совершает, опираясь на предсказания своего провидца. Осталась только горстка непокорных народов в пустыне, которые еще противостоят власти Мемнона.Немногие оставшиеся племена нанимают воина акадца Метаеса — человека убивающего за деньги — чтобы тот убил провидца Мемнона. Оказавшись во вражеском лагере, Метаес к своему удивлению обнаруживает, что ясновидец — это красивая молодая женщина Кассандра. Он оставляет ее в живых и берет с собой в пустыню, чтобы выманить Мемнона из его города-крепости Гоморры. Единственное, что может успокоить теперь Метаеса — это смерть Мемнона…



Выпущено: Германия, США, Бельгия
Продолжительность: 01:31:00
Перевод: Дублированный

Файл
Качество: BDRemux 2160p
Видео: 3840x2160 at 23.976 fps, MPEG-H HEVC HDR Video, 69200 kbps avg
Аудио01: 48 kHz, AC3, 5.1, 384 Kbps | Дублированный | RUS |
Аудио02: 48 kHz, DTS-HD MA, 5.1, 7994 Kbps | Оригинал | ENG |
Субтитры: Русские (full), английские

General
Unique ID : 19569243192164593156545020202275504885 (0xEB8E62E628DDFF516E49C7D159B02F5)
Complete name : D:Video111The.Scorpion.King.2002.UHD.BDREMUX.2160p.HDR.seleZen.mkv
Format : Matroska
Format version : Version 4
File size : 49.5 GiB
Duration : 1 h 31 min
Overall bit rate mode : Variable
Overall bit rate : 77.6 Mb/s
Movie name : The Scorpion King 4K 2002 from селезень
Encoded date : UTC 2019-06-20 02:12:25
Writing application : mkvmerge v33.1.0 ('Primrose') 64-bit
Writing library : libebml v1.3.7 + libmatroska v1.5.0

Video
ID : 1
Format : HEVC
Format/Info : High Efficiency Video Coding
Format profile : Main 10@L5.1@High
HDR format : SMPTE ST 2086, HDR10 compatible
Codec ID : V_MPEGH/ISO/HEVC
Duration : 1 h 31 min
Bit rate : 69.2 Mb/s
Width : 3 840 pixels
Height : 2 160 pixels
Display aspect ratio : 16:9
Frame rate mode : Constant
Frame rate : 23.976 (24000/1001) FPS
Color space : YUV
Chroma subsampling : 4:2:0 (Type 2)
Bit depth : 10 bits
Bits/(Pixel*Frame) : 0.348
Stream size : 44.2 GiB (89%)
Writing library : ATEME Titan File 3.9.0 (4.9.0.0)
Language : English
Default : Yes
Forced : No
Color range : Limited
Color primaries : BT.2020
Transfer characteristics : PQ
Matrix coefficients : BT.2020 non-constant
Mastering display color pri : Display P3
Mastering display luminance : min: 0.0050 cd/m2, max: 1000 cd/m2
Maximum Content Light Level : 1000 cd/m2
Maximum Frame-Average Light : 295 cd/m2

Audio #1
ID : 2
Format : AC-3
Format/Info : Audio Coding 3
Commercial name : Dolby Digital
Codec ID : A_AC3
Duration : 1 h 31 min
Bit rate mode : Constant
Bit rate : 384 kb/s
Channel(s) : 6 channels
Channel layout : L R C LFE Ls Rs
Sampling rate : 48.0 kHz
Frame rate : 31.250 FPS (1536 SPF)
Bit depth : 16 bits
Compression mode : Lossy
Stream size : 251 MiB (0%)
Title : Dub
Language : Russian
Service kind : Complete Main
Default : Yes
Forced : Yes

Audio #2
ID : 3
Format : DTS XLL X
Format/Info : Digital Theater Systems
Commercial name : DTS-HD Master Audio
Codec ID : A_DTS
Duration : 1 h 31 min
Bit rate mode : Variable
Bit rate : 7 994 kb/s
Channel(s) : 8 channels
Channel(s)_Original : Object Based
Channel layout : Object Based
Sampling rate : 48.0 kHz
Frame rate : 93.750 FPS (512 SPF)
Bit depth : 24 bits
Stream size : 5.10 GiB (10%)
Title : Original
Language : English
Default : No
Forced : No

Text #1
ID : 4
Format : UTF-8
Codec ID : S_TEXT/UTF8
Codec ID/Info : UTF-8 Plain Text
Duration : 1 h 23 min
Bit rate : 49 b/s
Count of elements : 610
Stream size : 30.0 KiB (0%)
Title : Full
Language : Russian
Default : No
Forced : No

Text #2
ID : 5
Format : UTF-8
Codec ID : S_TEXT/UTF8
Codec ID/Info : UTF-8 Plain Text
Duration : 1 h 24 min
Bit rate : 38 b/s
Count of elements : 763
Stream size : 23.9 KiB (0%)
Title : SDH
Language : English
Default : No
Forced : No

Menu
00:00:00.000 : en:The Kill and Akkadian
00:03:47.018 : en:The Rise of Memnon
00:05:03.011 : en:A Clan of Cutthroats
00:08:32.178 : en:Three Against Memnon
00:11:33.443 : en:Betrayed
00:15:58.541 : en:Fire Ants
00:21:33.709 : en:Gomorrah
00:27:39.157 : en:A Forced Hand
00:29:48.495 : en:On the Run
00:32:51.928 : en:Mathayus' Prisoner
00:39:10.765 : en:Killer in the Storm
00:45:15.004 : en:Blood of the Scorpion
00:50:59.515 : en:A Battle with Balthazar
00:56:11.118 : en:Visions of Death
01:03:41.109 : en:The Invaders
01:06:49.631 : en:A Simply Test
01:11:34.874 : en:Mathayus Strikes
01:19:40.150 : en:The Scorpion Sting
01:21:42.356 : en:Hail to the King
01:24:41.410 : en:End Titles


_________________
Проголосуй за трекер Открытый торрент трекер - RUS-MEDIA.ORG

Проголосуй Открытый торрент трекер - RUS-MEDIA.ORG


Скачать книги и аудио книги через торрент


Вернуться к началу
 Профиль Отправить личное сообщение  
 
   Похожие торренты   Автор   Торрент   Размер 
В этой теме нет новых непрочитанных сообщений. Царь скорпионов / The Scorpion King [Фэнтези, боевик, триллер, 2002] UHD Blu-Ray 2160p, Dub [4K] [Лицензия]

salma3

0 | 0

56.45 ГБ

В этой теме нет новых непрочитанных сообщений. Царь скорпионов / The Scorpion King [фэнтези, боевик, триллер, приключения, 2002] UHD BDRip 1080p, Dub

NTL

0 | 0

8.31 ГБ

В этой теме нет новых непрочитанных сообщений. Царь Скорпионов: Книга Душ / The Scorpion King: Book of Souls [Фэнтези, боевик, приключения, 2018] BDRemux 1080p, Dub

salma3

0 | 0

26.84 ГБ

В этой теме нет новых непрочитанных сообщений. Царь Скорпионов: Книга Душ / The Scorpion King: Book of Souls [Фэнтези, боевик, приключения, 2018] BDRip 1080p, Dub

salma3

3 | 9

7.79 ГБ

В этой теме нет новых непрочитанных сообщений. Царь Скорпионов: Книга Душ / The Scorpion King: Book of Souls [Фэнтези, боевик, приключения, 2018] WEBRip, Dvo

salma3

51 | 58

1.43 ГБ

В этой теме нет новых непрочитанных сообщений. Царь Скорпионов: Книга Душ / The Scorpion King: Book of Souls [Фэнтези, боевик, приключения, 2018] WEBRip 720p, Dvo

salma3

500 | 58

2.28 ГБ

В этой теме нет новых непрочитанных сообщений. Псы-воины / Dog Soldiers [ужасы, фэнтези, боевик, 2002] UHD BDRemux 2160p, Mvo [4K]

salma3

0 | 0

41.48 ГБ


Начать новую тему Ответить на тему  [ 1 сообщение ] 




Для Мосгорсуда, Роскомнадзора и рекламодателей:: rstracker[собака]yandex.ru
cron