Торрент файл
скачать торрент магнет ссылка Добавлен: 02 июн 2019, 20:18
Размер: 4.1 ГБ
Сидеров: 0
Личеров: 0
Статус: (salma3)
Автор

СообщениеДобавлено: 02 июн 2019, 20:18 

Не в сети
Супермодератор
Аватара пользователя
Дата регистрации:
15 фев 2012, 16:44
Возраст: 32
Спасибо: 8321 / 2148
Сообщения: 97229
Год выхода: 2008
Жанр: боевик, триллер, приключения
Режиссер: Марк Форстер

В ролях: Дэниэл Крэйг, Ольга Куриленко, Матье Амальрик, Джуди Денч, Джанкарло Джаннини, Джемма Артертон, Джеффри Райт, Дэвид Харбор, Джеспер Кристенсен, Анатоль Таубман

О фильме:
Действие фильма "Квант милосердия" начинается буквально через час после финальных событий предыдущего, "Казино Рояль". Бонд вне себя от ярости, вызванной предательством любимой женщины. Тем более, что она была ещё и его коллегой по Секретной Службе. Однако агент 007 в нём всё же берёт верх над оскорблёнными гордостью и доверием. Тем более, что предательство закралось гораздо глубже, чем кажется на первый взгляд - двойным агентом оказывается даже личный телохранитель самого шефа Службы, а преступная организация, шантажировавшая Веспер, подругу Бонда - сильна и организована настолько, что способна сломить и подчинить едва ли не кого угодно. Но если она при этом перешла дорогу лично Джеймсу Бонду - то тем хуже для неё... Он сумеет и узнать, что за чередою всех прежних предательств и новых преступлений стоит амбициозный бизнесмен Доминик Грин, и найти себе сильного помошника, несмотря на то, что это представительница слабого пола, ищущая совсем другого человека, и всё время опережать на шаг в этой опасной охоте всех без исключения - от собственного начальства до могущественного ЦРУ. Пока Грин затевает с недалёким и беспринципным генералом Медрано государственный переворот в Боливии, а сам генерал даже не догадывается, какими выгодами это обернётся для самого Грина - Бонд и его боевая подруга Камилла неуклонно приближаются к цели, которая у них обоих, по большому счёту, одна на двоих - возмездие.



Страна: Великобритания, США
Продолжительность: 01:46:03
Перевод: Профессиональный (дублированный)

Файл
Кодек: h.264
Качество: WEBRip 1080p
Видео: AVC/H264, 1920x1080, 23.976 fps, 4524 kbps
Аудио 1: русский (AC3, 6 ch, 48 kHz, 448 kbps)
Аудио 2: английский (AC3, 6 ch, 48 kHz, 448 kbps)
Субтитры: Русские (Forced, Full), Английские (Full)

General
UniqueID : 183185666852726067042751864912990072411 (0x89D046AFA19CCE2F9E76041992226E5B)
Complete name : D:Quantum of Solace (2008) Open Matte.mkv
Format : Matroska
File size : 4.10 GiB
Duration : 1h 46mn
Overall bit rate : 5 530 Kbps
Encoded date : UTC 2019-06-02 14:01:55
Writing application : mkvmerge v8.3.0 ('Over the Horizon') 32bit
Writing library : libebml v1.3.1 + libmatroska v1.4.2

Video
ID : 1
Format : AVC
Format/Info : Advanced Video Codec
Format profile : High@L4.1
Format settings, CABAC : Yes
Format settings, ReFrames : 4 frames
Codec ID : V_MPEG4/ISO/AVC
Duration : 1h 46mn
Bit rate : 4 524 Kbps
Nominal bit rate : 4 800 Kbps
Width : 1 920 pixels
Height : 1 080 pixels
Display aspect ratio : 16:9
Frame rate mode : Constant
Frame rate : 23.976 fps
Color space : YUV
Chroma subsampling : 4:2:0
Bit depth : 8 bits
Scan type : Progressive
Bits/(Pixel*Frame) : 0.091
Stream size : 3.36 GiB (82%)
Writing library : x264 core 148
Encoding settings : cabac=1 / ref=2 / deblock=1:0:0 / analyse=0x3:0x113 / me=hex / subme=6 / psy=1 / psy_rd=1.00:0.00 / mixed_ref=1 / me_range=16 / chroma_me=1 / trellis=1 / 8x8dct=1 / cqm=0 / deadzone=21,11 / fast_pskip=1 / chroma_qp_offset=-2 / threads=1 / lookahead_threads=1 / sliced_threads=0 / nr=0 / decimate=1 / interlaced=0 / bluray_compat=0 / constrained_intra=0 / bframes=3 / b_pyramid=2 / b_adapt=1 / b_bias=0 / direct=1 / weightb=1 / open_gop=0 / weightp=1 / keyint=250 / keyint_min=25 / scenecut=0 / intra_refresh=0 / rc_lookahead=30 / rc=abr / mbtree=1 / bitrate=4800 / ratetol=1.0 / qcomp=0.60 / qpmin=0 / qpmax=69 / qpstep=4 / ip_ratio=1.40 / aq=1:1.00

Audio #1
ID : 2
Format : AC-3
Format/Info : Audio Coding 3
Mode extension : CM (complete main)
Codec ID : A_AC3
Duration : 1h 46mn
Bit rate mode : Constant
Bit rate : 448 Kbps
Channel(s) : 6 channels
Channel positions : Front: L C R, Side: L R, LFE
Sampling rate : 48.0 KHz
Bit depth : 16 bits
Compression mode : Lossy
Stream size : 340 MiB (8%)
Language : Russian

Audio #2
ID : 3
Format : AC-3
Format/Info : Audio Coding 3
Mode extension : CM (complete main)
Codec ID : A_AC3
Duration : 1h 46mn
Bit rate mode : Constant
Bit rate : 448 Kbps
Channel(s) : 6 channels
Channel positions : Front: L C R, Side: L R, LFE
Sampling rate : 48.0 KHz
Bit depth : 16 bits
Compression mode : Lossy
Stream size : 340 MiB (8%)
Language : English

Text #1
ID : 4
Format : UTF-8
Codec ID : S_TEXT/UTF8
Codec ID/Info : UTF-8 Plain Text
Title : Forced
Language : Russian

Text #2
ID : 5
Format : UTF-8
Codec ID : S_TEXT/UTF8
Codec ID/Info : UTF-8 Plain Text
Title : Full
Language : Russian

Text #3
ID : 6
Format : UTF-8
Codec ID : S_TEXT/UTF8
Codec ID/Info : UTF-8 Plain Text
Language : English
Open Matte версия имеет большее наполнение кадра




_________________
Проголосуй за трекер Открытый торрент трекер - RUS-MEDIA.ORG

Проголосуй Открытый торрент трекер - RUS-MEDIA.ORG


Вернуться к началу
 Профиль Отправить личное сообщение  
 
   Похожие торренты   Автор   Торрент   Размер 
В этой теме нет новых непрочитанных сообщений. Ультиматум Борна / The Bourne Ultimatum [Боевик, триллер, криминал, 2007] WEBRip 1080p, Dub [Open Matte]

K15

14 | 12

4.82 ГБ

В этой теме нет новых непрочитанных сообщений. Экстремалы / Extreme Ops [боевик, триллер, приключения, 2002] WEB-DL 1080p, Dub [Open Matte]

salma3

0 | 0

9.62 ГБ

В этой теме нет новых непрочитанных сообщений. Сокровище Амазонки / The Rundown [боевик, триллер, приключения, 2003] WEB-DL 1080p, Dub [Open Matte]

salma3

0 | 112

10.09 ГБ

В этой теме нет новых непрочитанных сообщений. Бой с тенью 3D: Последний раунд [боевик, драма, криминал, приключения, 2011] WEBRip 1080p | Open Matte

NTL

0 | 0

4.9 ГБ

В этой теме нет новых непрочитанных сообщений. Вокруг света за 80 дней / Around the World in 80 Days [боевик, комедия, приключения, 2004] WEBRip-AVC, Dub [Open Matte]

salma3

0 | 0

743.65 МБ

В этой теме нет новых непрочитанных сообщений. Хижина в лесу / The Cabin in the Woods [Ужасы, триллер, 2011] WEBRip 1080p, Dub [Open Matte]

salma3

0 | 0

4.14 ГБ

В этой теме нет новых непрочитанных сообщений. Люди Икс: Апокалипсис / X-Men: Apocalypse [Фантастика, боевик, приключения, 2016] WEBRip-AVC, Dub [Open Matte] [Локализованная версия]

salma3

0 | 0

2.87 ГБ


Начать новую тему Ответить на тему  [ 1 сообщение ] 




Для Мосгорсуда, Роскомнадзора и рекламодателей:: rstracker[собака]yandex.ru
cron