COVID-19 - Последняя информация о коронавирусе на сайте Минздрава




Торрент файл
скачать торрент магнет ссылка Добавлен: 17 май 2019, 10:48
Размер: 10.24 ГБ
Сидеров: 1
Личеров: 0
Статус: (salma3)
Автор

СообщениеДобавлено: 17 май 2019, 10:48 

Не в сети
Супермодератор
Аватара пользователя
Дата регистрации:
15 фев 2012, 16:44
Возраст: 32
Спасибо: 8311 / 2148
Сообщения: 97175
Год выхода: 1995
Жанр: ужасы, триллер
Режиссер: Энн Гурсо

В ролях: Алисса Милано, Мартин Кемп, Харольд Пруэтт, Джордан Лэдд, Рэйчел Тру, Шарлотта Льюис, Дженнифер Тилли, Ребекка Ферратти, Глори Голд, Шона Райан, ...

О фильме: Чтобы не уснуть вечным сном, у вампира есть три дня на то, чтобы соблазнить и заполучить душу юной девственницы Шарлотты. К сожалению у Шарлотты уже имеется приятель, поэтому вампир решает действовать через сны девушки.



Страна: США
Продолжительность: 01:32:39
Перевод: Авторский (одноголосый, закадровый) Визгунов Сергей

Файл
Кодек: x264
Качество: BDRip 1080p
Видео: 1920x1032, 15000 kbps, 23,976 fps
Звук:
Аудио #1: AC-3, 2 ch, 384 kbps (Rus) - AVO Визгунов Сергей
Аудио #2: AC-3, 6 ch, 448 kbps (Eng)
Субтитры: Английские

x264 [info]: frame I:676 Avg QP:15.21 size:184119
x264 [info]: frame P:25364 Avg QP:17.41 size:118793
x264 [info]: frame B:107256 Avg QP:19.67 size: 67866
x264 [info]: consecutive B-frames: 1.2% 1.2% 2.6% 20.0% 15.7% 30.8% 9.4% 14.1% 2.4% 1.9% 0.7%

Общее
Уникальный идентификатор : 248613853283553369920647428161841381993 (0xBB094955A0C23A2F895474F19923C269)
Полное имя : Объятие вампира (Embrace of the Vampire) 1995 BDRip 1080p.mkv
Формат : Matroska
Версия формата : Version 2
Размер файла : 10,2 Гбайт
Продолжительность : 1 ч. 32 м.
Общий поток : 15,8 Мбит/сек
Дата кодирования : UTC 2015-11-06 14:49:48
Программа кодирования : mkvmerge v4.0.0 ('The Stars were mine') сборка от Jun 6 2010 16:18:42
Библиотека кодирования : libebml v1.0.0 + libmatroska v1.0.0

Видео
Идентификатор : 1
Формат : AVC
Формат/Информация : Advanced Video Codec
Профиль формата : High@L4.1
Параметр CABAC формата : Да
Параметр ReFrames формата : 4 кадра
Идентификатор кодека : V_MPEG4/ISO/AVC
Продолжительность : 1 ч. 32 м.
Битрейт : 15,0 Мбит/сек
Ширина : 1920 пикселей
Высота : 1032 пикселя
Соотношение сторон : 1,85:1
Режим частоты кадров : Постоянный
Частота кадров : 23,976 кадра/сек
Цветовое пространство : YUV
Субдискретизация насыщенности : 4:2:0
Битовая глубина : 8 бит
Тип развёртки : Прогрессивная
Бит/(Пиксели*Кадры) : 0.316
Размер потока : 9,50 Гбайт (93%)
Библиотека кодирования : x264 core 146 r2538 121396c
Настройки программы : cabac=1 / ref=4 / deblock=1:-3:-3 / analyse=0x3:0x133 / me=umh / subme=11 / psy=1 / psy_rd=1.00:0.00 / mixed_ref=1 / me_range=32 / chroma_me=1 / trellis=2 / 8x8dct=1 / cqm=0 / deadzone=21,11 / fast_pskip=1 / chroma_qp_offset=-4 / threads=12 / lookahead_threads=2 / sliced_threads=0 / nr=0 / decimate=0 / interlaced=0 / bluray_compat=0 / constrained_intra=0 / bframes=10 / b_pyramid=2 / b_adapt=2 / b_bias=0 / direct=3 / weightb=1 / open_gop=0 / weightp=2 / keyint=240 / keyint_min=23 / scenecut=40 / intra_refresh=0 / rc_lookahead=60 / rc=2pass / mbtree=0 / bitrate=15000 / ratetol=1.0 / qcomp=0.60 / qpmin=0 / qpmax=69 / qpstep=4 / cplxblur=20.0 / qblur=0.5 / vbv_maxrate=50000 / vbv_bufsize=62500 / nal_hrd=none / filler=0 / ip_ratio=1.40 / pb_ratio=1.30 / aq=1:0.80
Язык : English
Default : Нет
Forced : Нет

Аудио #1
Идентификатор : 2
Формат : AC-3
Формат/Информация : Audio Coding 3
Расширение режима : CM (complete main)
Параметр Endianness формата : Big
Идентификатор кодека : A_AC3
Продолжительность : 1 ч. 32 м.
Вид битрейта : Постоянный
Битрейт : 384 Кбит/сек
Каналы : 2 канала
Расположение каналов : Front: L R
Частота : 48,0 КГц
Метод сжатия : С потерями
Размер потока : 254 Мбайт (2%)
Заголовок : AVO Сергей Визгунов
Язык : Russian
Default : Нет
Forced : Нет

Аудио #2
Идентификатор : 3
Формат : AC-3
Формат/Информация : Audio Coding 3
Расширение режима : CM (complete main)
Параметр Endianness формата : Big
Идентификатор кодека : A_AC3
Продолжительность : 1 ч. 32 м.
Вид битрейта : Постоянный
Битрейт : 448 Кбит/сек
Каналы : 6 каналов
Расположение каналов : Front: L C R, Side: L R, LFE
Частота : 48,0 КГц
Метод сжатия : С потерями
Размер потока : 297 Мбайт (3%)
Язык : English
Default : Нет
Forced : Нет

Текст
Идентификатор : 4
Формат : UTF-8
Идентификатор кодека : S_TEXT/UTF8
Идентификатор кодека/Информация : UTF-8 Plain Text
Язык : English
Default : Нет
Forced : Нет



_________________
Проголосуй за трекер Открытый торрент трекер - RUS-MEDIA.ORG

Проголосуй Открытый торрент трекер - RUS-MEDIA.ORG


Скачать книги и аудио книги через торрент


Вернуться к началу
 Профиль Отправить личное сообщение  
 
   Похожие торренты   Автор   Торрент   Размер 
В этой теме нет новых непрочитанных сообщений. Объятие вампира / Embrace of the Vampire [ужасы, триллер, 1995] HDRip-AVC, Avo

salma3

0 | 0

744.53 МБ

В этой теме нет новых непрочитанных сообщений. Объятия вампира / Embrace of the Vampire [Ужасы, 2013] BDRip 720p, Mvo [iTunes]

salma3

0 | 0

4.74 ГБ

В этой теме нет новых непрочитанных сообщений. Объятия вампира / Embrace of the Vampire [ужасы, 2013] HDRip-AVC, Mvo [iTunes]

salma3

0 | 0

742.57 МБ

В этой теме нет новых непрочитанных сообщений. Дневники вампира / The Vampire Diaries [S01-08] [фэнтези, ужасы, триллер, 2009-2017] BDRip, Mvo [LostFilm]

salma3

0 | 0

121.58 ГБ

В этой теме нет новых непрочитанных сообщений. История одного вампира / Cirque du Freak: The Vampire's Assistant [фэнтези, боевик, триллер, 2009] BDRip 1080p, Dub [лицензия]

salma3

0 | 0

5.76 ГБ

В этой теме нет новых непрочитанных сообщений. Вампир в Бруклине / Vampire In Brooklyn [Ужасы, мелодрама, комедия, 1995] WEB-DL 1080p, Mvo

salma3

0 | 0

7.99 ГБ

В этой теме нет новых непрочитанных сообщений. Вампир в Бруклине / Vampire In Brooklyn [Ужасы, мелодрама, комедия, 1995] WEBRip 720p, Mvo

salma3

5 | 4

4.37 ГБ


Начать новую тему Ответить на тему  [ 1 сообщение ] 




Для Мосгорсуда, Роскомнадзора и рекламодателей:: rstracker[собака]yandex.ru
cron