Торрент файл
скачать торрент магнет ссылка Добавлен: 15 май 2019, 20:26
Размер: 5.27 ГБ
Сидеров: 0
Личеров: 0
Статус: (salma3)
Автор

СообщениеДобавлено: 15 май 2019, 20:26 

Не в сети
Супермодератор
Аватара пользователя
Дата регистрации:
15 фев 2012, 16:44
Возраст: 29
Спасибо: 7978 / 2147
Сообщения: 88068
Год выхода: 2010
Жанр: ужасы, триллер, детектив
Режиссер: Ник Коэн

В ролях: Анна Брюстер, Джофф Белл, Даниэль Кальтаджироне, Эмма Кэтервуд, О. Т. Фагбенли, Скарлет Джонсон, Уилл Меллор, Скарлет Сабет, Natai Pauwels, Карл Эшман, Рис Чэпман, Джеймс Марриот

О фильме:
Вечеринка на катере превращается в ужасную резню. Ужас, скрывающийся в тростнике, растущем повсеместно в заболоченной местности, нападает на героев и безжалостно их уничтожает. Что за тайна связана с этим местом, как победить призраков, несущих смерть живым?



Страна: Великобритания
Продолжительность: 01:22:52
Перевод: авторский (одноголосый закадровый) Максим Логинофф

Файл
Качество: BDRip 720p
Видео: 1280x546 at 23.976 fps, x264@L4.1, 7141 kbps
Аудио 1: Russian: AC3 / 5.1 / 448 Kbps / 48 kHz |Максим Логинофф|
Аудио 2: English: DTS / 5.1 / 1510 Kbps / 48 kHz
Субтитры: английские

Complete name : The.Reeds.2009.L1.BDRip.720p.-TVB.mkv
Format : Matroska
File size : 5.27 GiB
Duration : 1h 22mn
Overall bit rate : 9 096 Kbps
Movie name : -TVB-
Encoded date : UTC 2011-07-16 23:07:53
Writing application : mkvmerge v4.8.0 ('I Got The...') сборка от May 24 2011 03:12:58
Writing library : libebml v1.2.0 + libmatroska v1.1.0

Video
ID : 1
Format : AVC
Format/Info : Advanced Video Codec
Format profile : High@L4.1
Format settings, CABAC : Yes
Format settings, ReFrames : 12 frames
Codec ID : V_MPEG4/ISO/AVC
Duration : 1h 22mn
Bit rate : 7 141 Kbps
Width : 1 280 pixels
Height : 546 pixels
Display aspect ratio : 2.35:1
Frame rate : 23.976 fps
Color space : YUV
Chroma subsampling : 4:2:0
Bit depth : 8 bits
Scan type : Progressive
Bits/(Pixel*Frame) : 0.426
Stream size : 4.03 GiB (76%)
Title : The.Reeds.2009.BluRay.720p.DTS.x264-CHD
Writing library : x264 core 115 r2008+578 3864dbe
Encoding settings : cabac=1 / ref=12 / deblock=1:-3:-3 / analyse=0x3:0x113 / me=umh / subme=9 / psy=1 / fade_compensate=0.00 / psy_rd=1.10:0.15 / mixed_ref=1 / me_range=32 / chroma_me=1 / trellis=2 / 8x8dct=1 / cqm=2 / deadzone=21,11 / fast_pskip=0 / chroma_qp_offset=-2 / threads=32 / sliced_threads=0 / nr=0 / decimate=1 / interlaced=0 / bluray_compat=0 / constrained_intra=0 / fgo=0 / bframes=6 / b_pyramid=2 / b_adapt=2 / b_bias=0 / direct=3 / weightb=1 / open_gop=0 / weightp=2 / keyint=250 / keyint_min=23 / scenecut=40 / intra_refresh=0 / rc_lookahead=60 / rc=2pass / mbtree=1 / bitrate=7141 / ratetol=1.0 / qcomp=0.60 / qpmin=1 / qpmax=63 / qpstep=4 / cplxblur=20.0 / qblur=0.5 / vbv_maxrate=40000 / vbv_bufsize=30000 / nal_hrd=none / ip_ratio=1.40 / aq=1:0.80
Language : English

Audio #1
ID : 2
Format : AC-3
Format/Info : Audio Coding 3
Mode extension : CM (complete main)
Codec ID : A_AC3
Duration : 1h 22mn
Bit rate mode : Constant
Bit rate : 448 Kbps
Channel(s) : 6 channels
Channel positions : Front: L C R, Side: L R, LFE
Sampling rate : 48.0 KHz
Bit depth : 16 bits
Compression mode : Lossy
Stream size : 266 MiB (5%)
Title : VO
Language : Russian

Audio #2
ID : 3
Format : DTS
Format/Info : Digital Theater Systems
Codec ID : A_DTS
Duration : 1h 22mn
Bit rate mode : Constant
Bit rate : 1 510 Kbps
Channel(s) : 6 channels
Channel positions : Front: L C R, Side: L R, LFE
Sampling rate : 48.0 KHz
Bit depth : 24 bits
Compression mode : Lossy
Stream size : 895 MiB (17%)
Language : English

Text
ID : 4
Format : UTF-8
Codec ID : S_TEXT/UTF8
Codec ID/Info : UTF-8 Plain Text
Language : English


_________________
Проголосуй за трекер Открытый торрент трекер - RUS-MEDIA.ORG

Проголосуй Открытый торрент трекер - RUS-MEDIA.ORG


Вернуться к началу
 Профиль  
 
   Похожие торренты   Автор   Торрент   Размер 
В этой теме нет новых непрочитанных сообщений. Дьявол / Devil [Ужасы, триллер, детектив, 2010] BDRip 720p, Dub

salma3

0 | 0

2.72 ГБ

В этой теме нет новых непрочитанных сообщений. Высота / Altitude [ужасы, фантастика, триллер, детектив, 2010] BDRip 720p, Dvo

salma3

91 | 19

5.66 ГБ

В этой теме нет новых непрочитанных сообщений. Глубина / Below [Ужасы, триллер, детектив, 2002] BDRip 720p, Dub

salma3

0 | 0

3.54 ГБ

В этой теме нет новых непрочитанных сообщений. Глубина / Below [Ужасы, триллер, детектив, 2002] BDRip 720p, Dub

salma3

0 | 0

4.65 ГБ

В этой теме нет новых непрочитанных сообщений. Травма / Trauma [ужасы, триллер, детектив, 1993] BDRip 720p, Dvo

salma3

0 | 0

6.21 ГБ

В этой теме нет новых непрочитанных сообщений. Кукла / The Boy [Ужасы, триллер, детектив, 2016] BDRip 720p, Dub [Лицензия]

salma3

0 | 0

5.84 ГБ

В этой теме нет новых непрочитанных сообщений. Автомобиль-убийца / The Car [Триллер, детектив, ужасы, 1977] BDRip 720p, Dub

salma3

65 | 8

4.37 ГБ


Начать новую тему Ответить на тему  [ 1 сообщение ] 




Для Мосгорсуда, Роскомнадзора и рекламодателей:: mosgorsud-torrent[собачка]yandex.ru
cron