COVID-19 - Последняя информация о коронавирусе на сайте Минздрава




Торрент файл
скачать торрент магнет ссылка Добавлен: 15 май 2019, 11:42
Размер: 4.2 ГБ
Сидеров: 0
Личеров: 0
Статус: (salma3)
Автор

СообщениеДобавлено: 15 май 2019, 11:42 

Не в сети
Супермодератор
Аватара пользователя
Дата регистрации:
15 фев 2012, 16:44
Возраст: 32
Спасибо: 8311 / 2148
Сообщения: 97175
Год выхода: 2001
Жанр: боевик, приключения
Режиссер: Айзек Флорентайн

В ролях: Майкл Ворф, Карен Ким, Дэмиан Чапа, Маршалл Р. Тиг, Кейт Коннор, Софи Кроуфорд, Джордж Чунг, Велизaр Бинев, Франклин А. Валлетте, Энди Чэн

О фильме:
После неудачно проведенной операции по ликвидации мафиозной группировки судьба разлучила бывалых «морских котиков» Рэтлифа и Кейси. Рэтлиф всегда был ненадежным парнем, но никто не предполагал, что через три года он похитит знаменитого ученого и станет угрожать США ядерной ракетой, требуя у государства миллиард долларов! Теперь, стремясь избежать чудовищной катастрофы, военные вынуждены обратиться за помощью к Кейси, который лучше всех знает крутой нрав своего бывшего напарника. Только он сможет подобрать группу самых смелых и отчаянных бойцов, чтобы при помощи хитрого плана проникнуть на тайную базу Рэтлифа, которая может взлететь на воздух от единственной искры или неосторожного выстрела.



Страна: США
Продолжительность: 01:30:41
Перевод: Профессиональный (двухголосый закадровый), Авторский (одноголосый закадровый) Ю. Сербин

Файл
Кодек: mpeg2
Качество: DVDRemux
Видео: 720x576@768x576, 5408 Kbps, 25.000 FPS, 0.522 Bits/(Pixel*Frame)
Звук:
AC3, 6 ch, 384 Kbps, 48.0 kHz - RUS DVO
AC3, 2 ch, 192 Kbps, 48.0 kHz - RUS AVO (Сербин)
MP3, 2 ch, 128 Kbps, 48.0 kHz - RUS DVO - 2
AC3, 6 ch, 384 Kbps, 48.0 kHz - ENG

Семпл

Complete name : US Seals II The Ultimate Force (2001) DVDRemux - 2 MVO, Serbin.mkv
Format : Matroska
Format version : Version 2
File size : 4.20 GiB
Duration : 1 h 30 min
Overall bit rate mode : Variable
Overall bit rate : 6 628 kb/s
Encoded date : UTC 2016-07-22 20:11:21
Writing application : mkvmerge v5.8.0 ('No Sleep / Pillow') built on Sep 2 2012 15:37:04
Writing library : libebml v1.2.3 + libmatroska v1.3.0

Video
ID : 1
Format : MPEG Video
Format version : Version 2
Format profile : Main@Main
Format settings : CustomMatrix / BVOP
Format settings, BVOP : Yes
Format settings, Matrix : Custom
Format settings, GOP : M=3, N=12
Format settings, picture structure : Frame
Codec ID : V_MPEG2
Codec ID/Info : MPEG 1 or 2 Video
Duration : 1 h 30 min
Bit rate mode : Variable
Bit rate : 5 408 kb/s
Maximum bit rate : 8 500 kb/s
Width : 720 pixels
Height : 576 pixels
Display aspect ratio : 4:3
Frame rate mode : Constant
Frame rate : 25.000 FPS
Standard : PAL
Color space : YUV
Chroma subsampling : 4:2:0
Bit depth : 8 bits
Scan type : Interlaced
Scan order : Top Field First
Compression mode : Lossy
Bits/(Pixel*Frame) : 0.522
Time code of first frame : 00:00:00:00
Time code source : Group of pictures header
GOP, Open/Closed : Open
GOP, Open/Closed of first frame : Closed
Stream size : 3.43 GiB (82%)
Language : English
Default : No
Forced : No

Audio #1
ID : 2
Format : AC-3
Format/Info : Audio Coding 3
Commercial name : Dolby Digital
Muxing mode : Header stripping
Codec ID : A_AC3
Duration : 1 h 30 min
Bit rate mode : Constant
Bit rate : 384 kb/s
Channel(s) : 6 channels
Channel layout : L R C LFE Ls Rs
Sampling rate : 48.0 kHz
Frame rate : 31.250 FPS (1536 SPF)
Bit depth : 16 bits
Compression mode : Lossy
Stream size : 249 MiB (6%)
Title : Surround 5.1
Language : Russian
Service kind : Complete Main
Default : No
Forced : No

Audio #2
ID : 3
Format : AC-3
Format/Info : Audio Coding 3
Commercial name : Dolby Digital
Muxing mode : Header stripping
Codec ID : A_AC3
Duration : 1 h 30 min
Bit rate mode : Constant
Bit rate : 192 kb/s
Channel(s) : 2 channels
Channel layout : L R
Sampling rate : 48.0 kHz
Frame rate : 31.250 FPS (1536 SPF)
Bit depth : 16 bits
Compression mode : Lossy
Stream size : 125 MiB (3%)
Title : (Сербин)
Language : Russian
Service kind : Complete Main
Default : No
Forced : No

Audio #3
ID : 4
Format : MPEG Audio
Format version : Version 1
Format profile : Layer 3
Format settings : Joint stereo / MS Stereo
Muxing mode : Header stripping
Codec ID : A_MPEG/L3
Codec ID/Hint : MP3
Duration : 1 h 30 min
Bit rate mode : Constant
Bit rate : 128 kb/s
Channel(s) : 2 channels
Sampling rate : 48.0 kHz
Compression mode : Lossy
Stream size : 83.0 MiB (2%)
Title : MVO
Language : Russian
Default : No
Forced : No

Audio #4
ID : 5
Format : AC-3
Format/Info : Audio Coding 3
Commercial name : Dolby Digital
Muxing mode : Header stripping
Codec ID : A_AC3
Duration : 1 h 30 min
Bit rate mode : Constant
Bit rate : 384 kb/s
Channel(s) : 6 channels
Channel layout : L R C LFE Ls Rs
Sampling rate : 48.0 kHz
Frame rate : 31.250 FPS (1536 SPF)
Bit depth : 16 bits
Compression mode : Lossy
Stream size : 249 MiB (6%)
Title : Surround 5.1
Language : English
Service kind : Complete Main
Default : No
Forced : No

Menu
00:00:00.080 : en:Chapter 01
00:05:04.400 : en:Chapter 02
00:10:24.200 : en:Chapter 03
00:15:44.480 : en:Chapter 04
00:21:36.200 : en:Chapter 05
00:26:40.160 : en:Chapter 06
00:32:32.360 : en:Chapter 07
00:37:36.440 : en:Chapter 08
00:42:40.520 : en:Chapter 09
00:47:44.240 : en:Chapter 10
00:52:48.200 : en:Chapter 11
00:58:08.360 : en:Chapter 12
01:03:12.080 : en:Chapter 13
01:08:00.440 : en:Chapter 14
01:12:48.080 : en:Chapter 15
01:17:52.400 : en:Chapter 16
01:22:40.400 : en:Chapter 17
01:27:17.720 : en:Chapter 18



_________________
Проголосуй за трекер Открытый торрент трекер - RUS-MEDIA.ORG

Проголосуй Открытый торрент трекер - RUS-MEDIA.ORG


Скачать книги и аудио книги через торрент


Вернуться к началу
 Профиль Отправить личное сообщение  
 
   Похожие торренты   Автор   Торрент   Размер 
В этой теме нет новых непрочитанных сообщений. Морские котики / Navy Seals [боевик, триллер, приключения, 1990] BDRip 1080p, Mvo

salma3

0 | 0

9.35 ГБ

В этой теме нет новых непрочитанных сообщений. Раптор / Raptor [Ужасы, фантастика, боевик, 2001] DVDRemux, Dvo

salma3

0 | 0

3.99 ГБ

В этой теме нет новых непрочитанных сообщений. Рёв / Рев / Roar [S01] [Фэнтези, боевик, приключения, 1997] DVDRemux, Dvo

salma3

0 | 0

22.75 ГБ

В этой теме нет новых непрочитанных сообщений. Розовый отряд коммандо / Pink Force Commando / Gong fen you xia [боевик, 1982] VHSRip, Avo

salma3

0 | 0

1.46 ГБ

В этой теме нет новых непрочитанных сообщений. Отряд / The Rack Pack [Фэнтези, боевик, приключения, 2018] WEBRip, Dvo [LakeFilms]

salma3

0 | 0

1.31 ГБ

В этой теме нет новых непрочитанных сообщений. К2: Предельная высота / K2: The Ultimate High [боевик, приключения, драма, 1991] HDTV 1080i, Dvo

salma3

0 | 0

13.09 ГБ

В этой теме нет новых непрочитанных сообщений. Бесшумная команда / The Silent Force [боевик, 2001] DVDRip, Avo

salma3

0 | 0

1.34 ГБ


Начать новую тему Ответить на тему  [ 1 сообщение ] 




Для Мосгорсуда, Роскомнадзора и рекламодателей:: rstracker[собака]yandex.ru
cron