COVID-19 - Последняя информация о коронавирусе на сайте Минздрава




Торрент файл
скачать торрент магнет ссылка Добавлен: 06 май 2019, 16:23
Размер: 7.16 ГБ
Сидеров: 0
Личеров: 0
Статус: (salma3)
Автор

СообщениеДобавлено: 06 май 2019, 16:23 

Не в сети
Супермодератор
Аватара пользователя
Дата регистрации:
15 фев 2012, 16:44
Возраст: 30
Спасибо: 8217 / 2148
Сообщения: 95897
Год выпуска: 1972
Выпущено: США, Великобритания, Scimitar Films
Жанр: Вестерн, приключения, драма
Режиссер: Майкл Уиннер

В ролях: Чарльз Бронсон, Джек Пэланс, Ричард Бэйсхарт, Джеймс Уитмор, Саймон Оуклэнд, Ралф Уэйт

О фильме: Индеец-полукровка по имени Чато (Чарльз Бронсон) убивает шерифа небольшого городка и пускается в бега. Его преследует целый отряд, возглавляемый бывшим конфедератом, офицером Зитмором (Джек Пэланс). Но отыскать индейца в прериях - задача просто невыполнимая. Отчаявшись поймать беглеца, охотники берут в плен его жену и насилуют её. Чато превращается в яростного и беспощадного мстителя.

Продолжительность: 01:40:24
Перевод: Профессиональный многоголосый, профессиональный двухголосый
Субтитры: Английские
Навигация по главам: Есть

Файл
Качество: BDRip 720p
Видео: MPEG-4 AVC, 9436 Кбит/сек, 1274x690, 24,000 кадра/сек
Аудио #1: AC3, 2 ch, 192 Кбит/сек | Русский, профессиональный (двухголосый закадровый) НТВ+
Аудио #2: AC3, 2 ch, 192 Кбит/сек | Русский, профессиональный (многоголосый закадровый) Somewax
Аудио #3: AC3, 2 ch, 384 Кбит/сек | Английский, оригинал



x264 [info]: frame I:951 Avg QP:18.18 size:136842
x264 [info]: frame P:27887 Avg QP:20.68 size: 75653
x264 [info]: frame B:115731 Avg QP:22.51 size: 42039
-----------------------------------------------------
Общее
Уникальный идентификатор : 224303480374535421339003908971188804637 (0xA8BF476928E03B3397583D2274B15C1D)
Полное имя : Земля.Чато.1972.BDRip.720p.KORSAR.mkv
Формат : Matroska
Версия формата : Version 2
Размер файла : 7,16 Гбайт
Продолжительность : 1 ч. 40 м.
Общий поток : 10,2 Мбит/сек
Дата кодирования : UTC 2018-09-05 19:17:27
Программа кодирования : mkvmerge v5.8.0 ('No Sleep / Pillow') built on Sep 2 2012 15:37:04
Библиотека кодирования : libebml v1.2.3 + libmatroska v1.3.0

Видео
Идентификатор : 1
Формат : AVC
Формат/Информация : Advanced Video Codec
Профиль формата : High@L4.1
Настройки формата : CABAC / 9 Ref Frames
Параметр CABAC формата : Да
Параметр RefFrames формата : 9 кадров
Идентификатор кодека : V_MPEG4/ISO/AVC
Продолжительность : 1 ч. 40 м.
Битрейт : 9436 Кбит/сек
Ширина : 1274 пикселя
Высота : 690 пикселей
Соотношение сторон : 1,85:1
Режим частоты кадров : Постоянный
Частота кадров : 24,000 кадра/сек
Цветовое пространство : YUV
Субдискретизация насыщенности : 4:2:0
Битовая глубина : 8 бит
Тип развёртки : Прогрессивная
Бит/(Пиксели*Кадры) : 0.447
Размер потока : 6,48 Гбайт (90%)
Заголовок : RIP | MZMA
Библиотека кодирования : x264 core 152 r2851kMod ba24899
Настройки программы : cabac=1 / ref=9 / deblock=1:-2:-2 / analyse=0x3:0x113 / me=umh / subme=11 / psy=1 / fade_compensate=0.00 / psy_rd=1.00:0.00 / mixed_ref=1 / me_range=48 / chroma_me=1 / trellis=2 / 8x8dct=1 / cqm=0 / deadzone=21,11 / fast_pskip=0 / chroma_qp_offset=-2 / threads=6 / lookahead_threads=1 / sliced_threads=0 / nr=0 / decimate=0 / interlaced=0 / bluray_compat=0 / constrained_intra=0 / bframes=16 / b_pyramid=2 / b_adapt=2 / b_bias=0 / direct=3 / weightb=1 / open_gop=0 / weightp=2 / keyint=240 / keyint_min=23 / scenecut=40 / intra_refresh=0 / rc_lookahead=40 / rc=2pass / mbtree=0 / bitrate=9436 / ratetol=1.0 / qcomp=0.60 / qpmin=0 / qpmax=69 / qpstep=4 / cplxblur=20.0 / qblur=0.5 / vbv_maxrate=50000 / vbv_bufsize=62500 / nal_hrd=none / filler=0 / ip_ratio=1.40 / pb_ratio=1.30 / aq=3:0.70
Язык : English
По умолчанию : Да
Принудительно : Нет
Цветовой диапазон : Limited
Основные цвета : BT.709
Характеристики трансфера : BT.709
Коэффициенты матрицы : BT.709

Аудио #1
Идентификатор : 2
Формат : AC-3
Формат/Информация : Audio Coding 3
Идентификатор кодека : A_AC3
Продолжительность : 1 ч. 40 м.
Вид битрейта : Постоянный
Битрейт : 192 Кбит/сек
Каналы : 2 канала
Расположение каналов : Front: L R
Частота : 48,0 КГц
Частота кадров : 31,250 кадров/сек (1536 SPF)
Битовая глубина : 16 бит
Метод сжатия : С потерями
Размер потока : 138 Мбайт (2%)
Заголовок : DVO | НТВ+
Язык : Russian
По умолчанию : Да
Принудительно : Нет

Аудио #2
Идентификатор : 3
Формат : AC-3
Формат/Информация : Audio Coding 3
Идентификатор кодека : A_AC3
Продолжительность : 1 ч. 40 м.
Вид битрейта : Постоянный
Битрейт : 192 Кбит/сек
Каналы : 2 канала
Расположение каналов : Front: L R
Частота : 48,0 КГц
Частота кадров : 31,250 кадров/сек (1536 SPF)
Битовая глубина : 16 бит
Метод сжатия : С потерями
Размер потока : 138 Мбайт (2%)
Заголовок : MVO | Somewax
Язык : Russian
По умолчанию : Нет
Принудительно : Нет

Аудио #3
Идентификатор : 4
Формат : AC-3
Формат/Информация : Audio Coding 3
Идентификатор кодека : A_AC3
Продолжительность : 1 ч. 40 м.
Вид битрейта : Постоянный
Битрейт : 384 Кбит/сек
Каналы : 2 канала
Расположение каналов : Front: L R
Частота : 48,0 КГц
Частота кадров : 31,250 кадров/сек (1536 SPF)
Битовая глубина : 16 бит
Метод сжатия : С потерями
Размер потока : 276 Мбайт (4%)
Заголовок : Original
Язык : English
По умолчанию : Нет
Принудительно : Нет

Текст #1
Идентификатор : 5
Формат : UTF-8
Идентификатор кодека : S_TEXT/UTF8
Идентификатор кодека/Информация : UTF-8 Plain Text
Язык : English
По умолчанию : Нет
Принудительно : Нет

Текст #2
Идентификатор : 6
Формат : UTF-8
Идентификатор кодека : S_TEXT/UTF8
Идентификатор кодека/Информация : UTF-8 Plain Text
Заголовок : SDH
Язык : English
По умолчанию : Нет
Принудительно : Нет

Меню
00:00:00.000 : en:Chapter 01
00:06:54.250 : en:Chapter 02
00:11:07.458 : en:Chapter 03
00:17:47.000 : en:Chapter 04
00:24:46.000 : en:Chapter 05
00:28:44.750 : en:Chapter 06
00:35:59.708 : en:Chapter 07
00:41:50.541 : en:Chapter 08
00:48:16.750 : en:Chapter 09
00:54:54.125 : en:Chapter 10
01:02:35.208 : en:Chapter 11
01:07:06.291 : en:Chapter 12
01:12:55.125 : en:Chapter 13
01:20:18.083 : en:Chapter 14
01:26:09.416 : en:Chapter 15
01:34:10.666 : en:Chapter 16

Релиз от:


_________________
Проголосуй за трекер Открытый торрент трекер - RUS-MEDIA.ORG

Проголосуй Открытый торрент трекер - RUS-MEDIA.ORG


Скачать книги и аудио книги через торрент


Вернуться к началу
 Профиль Отправить личное сообщение  
 
   Похожие торренты   Автор   Торрент   Размер 
В этой теме нет новых непрочитанных сообщений. Земля, забытая временем / The Land That Time Forgot [фэнтези, приключения, 1975] BDRip 720p, Avo

salma3

16 | 2

4.35 ГБ

В этой теме нет новых непрочитанных сообщений. Иеремия Джонсон / Jeremiah Johnson [драма, приключения, вестерн, 1972] BDRip, Mvo

salma3

0 | 0

2.18 ГБ

В этой теме нет новых непрочитанных сообщений. Земля гангстеров / Gangster Land [Драма, криминал, 2017] BDRip 1080p, Mvo

salma3

2 | 2

8.73 ГБ

В этой теме нет новых непрочитанных сообщений. Земля гангстеров / Gangster Land / In the Absence of Good Men [Боевик, драма, криминал, 2017] BDRip 1080p, Mvo | [iTunes]

NTL

0 | 0

8.97 ГБ

В этой теме нет новых непрочитанных сообщений. Земля до начала времен / The Land Before Time [Мультфильм, приключения, семейный, 1988] BDRip-HEVC 1080p, Dub

salma3

0 | 0

7.69 ГБ

В этой теме нет новых непрочитанных сообщений. Кунг-фу / Kung Fu [S01] [драма, приключения, вестерн, 1972-1973] WEBRip 720p, Dvo

salma3

0 | 0

27.47 ГБ

В этой теме нет новых непрочитанных сообщений. Земля мертвых / Land of the Dead [Ужасы, фантастика, триллер, 2005] BDRip-AVC, Mvo [Unrated]

salma3

170 | 25

746.56 МБ


Начать новую тему Ответить на тему  [ 1 сообщение ] 




Для Мосгорсуда, Роскомнадзора и рекламодателей:: rstracker[собака]yandex.ru
cron