COVID-19 - Последняя информация о коронавирусе на сайте Минздрава




Торрент файл
скачать торрент магнет ссылка Добавлен: 01 май 2019, 20:20
Размер: 8.8 ГБ
Сидеров: 0
Личеров: 0
Статус: (salma3)
Автор

СообщениеДобавлено: 01 май 2019, 20:20 

Не в сети
Супермодератор
Аватара пользователя
Дата регистрации:
15 фев 2012, 16:44
Возраст: 32
Спасибо: 8311 / 2148
Сообщения: 97175
Год выхода: 1987
Страна: Аргентина, США
Продолжительность: 01:31:47
Жанр: боевик, драма
Режиссер: Гордон Хесслер

В ролях: Сё Косуги, Льюис Ван Берген, Робин Эванс, Джерри Гибсон, Чарльз Люсия,Ричард Уайли, Карлос Эстрада, Улис Дюмон, Алан Амиел, Армандо Каро, ...

Перевод:
- Профессиональный (двуголосый, закадровый) НТВ+
- Авторский (одноголосый, закадровый) Немахов Юрий Геннадьевич

О фильме: Косуги в роли следователя Сиро Танака из отдела по борьбе с наркотиками, который выбивает дух из подонков, пытавших и убивших его помощника Рэя. Нарушив приказ, он преследует преступников от Сингапура до Буэнос-Айреса. К тому же убийцы похитили подругу Сиро и увезли ее на секретную базу в джунглях Южной Америки. И теперь герою предстоит в одиночку противостоять целому отряду вооруженных и хорошо натренированных террористов… А махать руками и ногами Косуги, мы знаем, умеет…



Кодек: x264
Качество: BDRip 1080p
Видео: 1920x1040, 13000 kbps, 23,976 fps
Аудио #1: AC-3, 2 ch, 192 kbps (Rus) - DVO НТВ+
Аудио #2: AC-3, 6 ch, 320 kbps (Rus) - AVO Немахов Юрий Геннадьевич
Аудио #3: AC-3, 2 ch, 224 kbps (Eng)
Субтитры: английские

За исходник спасибо - Мастер5 и анемподист

Сё Косуги семикратный чемпион мира по карате, а в 18 лет был чемпионом Японии по карате.
x264 [info]: frame I:802 Avg QP:23.34 size:159455
x264 [info]: frame P:24755 Avg QP:25.69 size: 98000
x264 [info]: frame B:106491 Avg QP:27.59 size: 59990
x264 [info]: consecutive B-frames: 1.6% 2.0% 3.9% 17.8% 12.3% 29.3% 9.0% 4.1% 4.9% 3.4% 3.6% 3.8% 2.3% 1.7% 0.4%

Общее
Уникальный идентификатор : 207545342848119852911583241281478859920 (0x9C23C7708983EBDEABC0E81669401C90)
Полное имя : Ярость чести (Rage of Honor) 1987 BDRip 1080p.mkv
Формат : Matroska
Версия формата : Version 2
Размер файла : 8,80 Гбайт
Продолжительность : 1 ч. 31 м.
Общий поток : 13,7 Мбит/сек
Дата кодирования : UTC 2019-05-01 10:31:10
Программа кодирования : mkvmerge v4.0.0 ('The Stars were mine') сборка от Jun 6 2010 16:18:42
Библиотека кодирования : libebml v1.0.0 + libmatroska v1.0.0

Видео
Идентификатор : 1
Формат : AVC
Формат/Информация : Advanced Video Codec
Профиль формата : High@L4.1
Параметр CABAC формата : Да
Параметр ReFrames формата : 4 кадра
Идентификатор кодека : V_MPEG4/ISO/AVC
Продолжительность : 1 ч. 31 м.
Битрейт : 13,0 Мбит/сек
Ширина : 1920 пикселей
Высота : 1040 пикселей
Соотношение сторон : 1,85:1
Режим частоты кадров : Постоянный
Частота кадров : 23,976 (24000/1001) кадра/сек
Цветовое пространство : YUV
Субдискретизация насыщенности : 4:2:0
Битовая глубина : 8 бит
Тип развёртки : Прогрессивная
Бит/(Пиксели*Кадры) : 0.272
Размер потока : 8,15 Гбайт (93%)
Библиотека кодирования : x264 core 146 r2538 121396c
Настройки программы : cabac=1 / ref=4 / deblock=1:-2:-2 / analyse=0x3:0x133 / me=umh / subme=11 / psy=1 / psy_rd=1.00:0.00 / mixed_ref=1 / me_range=32 / chroma_me=1 / trellis=2 / 8x8dct=1 / cqm=0 / deadzone=21,11 / fast_pskip=0 / chroma_qp_offset=-2 / threads=12 / lookahead_threads=2 / sliced_threads=0 / nr=0 / decimate=0 / interlaced=0 / bluray_compat=0 / constrained_intra=0 / bframes=14 / b_pyramid=2 / b_adapt=2 / b_bias=0 / direct=3 / weightb=1 / open_gop=0 / weightp=2 / keyint=240 / keyint_min=23 / scenecut=40 / intra_refresh=0 / rc=2pass / mbtree=0 / bitrate=13000 / ratetol=1.0 / qcomp=0.60 / qpmin=0 / qpmax=69 / qpstep=4 / cplxblur=20.0 / qblur=0.5 / ip_ratio=1.40 / pb_ratio=1.30 / aq=2:0.80
Язык : English
Default : Нет
Forced : Нет

Аудио #1
Идентификатор : 2
Формат : AC-3
Формат/Информация : Audio Coding 3
Расширение режима : CM (complete main)
Параметр Endianness формата : Big
Идентификатор кодека : A_AC3
Продолжительность : 1 ч. 31 м.
Вид битрейта : Постоянный
Битрейт : 192 Кбит/сек
Каналы : 2 канала
Расположение каналов : Front: L R
Частота : 48,0 КГц
Частота кадров : 31,250 кадров/сек (1536 spf)
Метод сжатия : С потерями
Размер потока : 126 Мбайт (1%)
Заголовок : DVO НТВ+
Язык : Russian
Default : Нет
Forced : Нет

Аудио #2
Идентификатор : 3
Формат : AC-3
Формат/Информация : Audio Coding 3
Расширение режима : CM (complete main)
Параметр Endianness формата : Big
Идентификатор кодека : A_AC3
Продолжительность : 1 ч. 31 м.
Вид битрейта : Постоянный
Битрейт : 320 Кбит/сек
Каналы : 6 каналов
Расположение каналов : Front: L C R, Side: L R, LFE
Частота : 48,0 КГц
Частота кадров : 31,250 кадров/сек (1536 spf)
Метод сжатия : С потерями
Размер потока : 210 Мбайт (2%)
Заголовок : AVO Немахов Юрий Геннадьевич (Yuriy Demigod)
Язык : Russian
Default : Нет
Forced : Нет

Аудио #3
Идентификатор : 4
Формат : AC-3
Формат/Информация : Audio Coding 3
Расширение режима : CM (complete main)
Параметр Endianness формата : Big
Идентификатор кодека : A_AC3
Продолжительность : 1 ч. 31 м.
Вид битрейта : Постоянный
Битрейт : 224 Кбит/сек
Каналы : 2 канала
Расположение каналов : Front: L R
Частота : 48,0 КГц
Частота кадров : 31,250 кадров/сек (1536 spf)
Метод сжатия : С потерями
Размер потока : 147 Мбайт (2%)
Язык : English
Default : Нет
Forced : Нет

Текст
Идентификатор : 5
Формат : UTF-8
Идентификатор кодека : S_TEXT/UTF8
Идентификатор кодека/Информация : UTF-8 Plain Text
Язык : English
Default : Нет
Forced : Нет

Меню
00:00:00.000 : en:Chapter 01
00:06:08.951 : en:Chapter 02
00:12:47.349 : en:Chapter 03
00:20:00.407 : en:Chapter 04
00:30:28.159 : en:Chapter 05
00:36:04.954 : en:Chapter 06
00:47:35.352 : en:Chapter 07
00:54:52.664 : en:Chapter 08
01:02:47.138 : en:Chapter 09
01:09:58.944 : en:Chapter 10
01:18:58.567 : en:Chapter 11
01:28:33.558 : en:Chapter 12



_________________
Проголосуй за трекер Открытый торрент трекер - RUS-MEDIA.ORG

Проголосуй Открытый торрент трекер - RUS-MEDIA.ORG


Скачать книги и аудио книги через торрент


Вернуться к началу
 Профиль Отправить личное сообщение  
 
   Похожие торренты   Автор   Торрент   Размер 
В этой теме нет новых непрочитанных сообщений. Честь и ярость / Rage and Honor [боевик, драма, криминал, 1992] DVDRip, Mvo [ОРТ]

salma3

0 | 0

1.43 ГБ

В этой теме нет новых непрочитанных сообщений. Честь и ярость / Rage and Honor [Боевик, 1992] DVDRip-AVC, Avo

salma3

0 | 0

2.07 ГБ

В этой теме нет новых непрочитанных сообщений. Честь и ярость 2: Враждебный захват / Rage and Honor II [боевик, триллер, криминал, 1993] DVDRip, Avo

salma3

0 | 0

1.44 ГБ

В этой теме нет новых непрочитанных сообщений. Честь и ярость 2: Враждебный захват / Rage and Honor 2: Hostile Takeover [Боевик, 1993] DVDRip-AVC, Avo

salma3

0 | 0

2.18 ГБ

В этой теме нет новых непрочитанных сообщений. Ярость зверя / Rage - furia primitiva / Primal Rage [ужасы, триллер, фантастика, 1988] BDRemux 1080p, Avo

salma3

0 | 0

20.99 ГБ

В этой теме нет новых непрочитанных сообщений. Команда-А / The A-Team [S05] [Боевик, приключения, драма, 1986-1987] BDRip 1080p, Dvo [ДТВ]

salma3

0 | 0

48.3 ГБ

В этой теме нет новых непрочитанных сообщений. Riley Davis - Ярость в уборной / Washroom Rage (2009) WEBRip

zorgi

5 | 0

386.44 МБ


Начать новую тему Ответить на тему  [ 1 сообщение ] 




Для Мосгорсуда, Роскомнадзора и рекламодателей:: rstracker[собака]yandex.ru
cron