COVID-19 - Последняя информация о коронавирусе на сайте Минздрава




Торрент файл
скачать торрент магнет ссылка Добавлен: 28 апр 2019, 20:18
Размер: 7.66 ГБ
Сидеров: 0
Личеров: 0
Статус: (salma3)
Автор

СообщениеДобавлено: 28 апр 2019, 20:18 

Не в сети
Супермодератор
Аватара пользователя
Дата регистрации:
15 фев 2012, 16:44
Возраст: 31
Спасибо: 8283 / 2148
Сообщения: 96789
Год выхода: 1962
Жанр: Приключения, пираты, драма
Режиссер: Джон Джиллинг

В ролях: Кристофер Ли, Кервин Мэтьюз, Гленн Корбетт, Питер Арне, Марла Ланди, Оливер Рид, Эндрю Кейр, Майкл Риппер, Дэвид Лодж, Дэннис Ватерман, Джеролд Уэллс, Джон Беннет, Десмонд Ллевелин, Дэнис Шоу, Джек Стюарт, Дайан Обри, Ричард Беннетт, Рональд Блэкман, Джон Коллин, Мари Деверо, Дон Леви, Майкл Малкастер, Майкл Пик, Джон Роден

О фильме:
XIX век, поселение гугенотов на Карибских островах. Джонатан Стендиш, несправедливо обвиненный в связи с замужней женщиной, изгнан из родной деревни и отправлен в поселение для преступников, откуда он по воле случая попадает в руки пиратов. Капитан морских разбойников Ла Рош уверен, что в деревне Джонатана находятся некие сокровища, и хочет, чтобы юноша привел его к ним. Но сам изгнанник даже не догадывается о том, что настоящее сокровище деревни – статуя его дедушки, на самом деле сделанная из чистого золота...



Страна: Великобритания
Продолжительность: 01:26:58
Перевод: Профессиональный многоголосый | 5-й канал СПб

Файл
Кодек: x.264
Качество: BDRip 1080p
Видео: MPEG-4 AVC, 11.8 Mбит/с, 1920x824, 23.976 кадр/с
Аудио #1: Русский (АС3, 2ch, 256 Кбит/с, 48.0 KHz)
Аудио #2: Английский (АС3, 2ch, 256 Кбит/с, 48.0 KHz)
Аудио #3: Французский (АС3, 2ch, 256 Кбит/с, 48.0 KHz)
Субтитры: Английские (*srt)

Источник: The.Pirates.of.Blood.River.1962.1080p.BluRay.x264-SADPANDA
General
Unique ID : 243483813620720055643676905456293317253 (0xB72D46D9E97E7056BCA9557F496F0A85)
Complete name : The.Pirates.of.Blood.River.1962.BDRip.1080p.mkv
Format : Matroska
Format version : Version 4 / Version 2
File size : 7.66 GiB
Duration : 1 h 26 min
Overall bit rate : 12.6 Mb/s
Encoded date : UTC 2019-04-28 10:39:14
Writing application : mkvmerge v7.1.0 ('Good Love') 64bit built on Jul 27 2014 13:06:55
Writing library : libebml v1.3.0 + libmatroska v1.4.1

Video
ID : 1
Format : AVC
Format/Info : Advanced Video Codec
Format profile : High@L4.1
Format settings, CABAC : Yes
Format settings, RefFrames : 5 frames
Codec ID : V_MPEG4/ISO/AVC
Duration : 1 h 26 min
Bit rate : 11.8 Mb/s
Width : 1 920 pixels
Height : 824 pixels
Display aspect ratio : 2.35:1
Frame rate mode : Constant
Frame rate : 23.976 (24000/1001) FPS
Color space : YUV
Chroma subsampling : 4:2:0
Bit depth : 8 bits
Scan type : Progressive
Bits/(Pixel*Frame) : 0.312
Stream size : 7.20 GiB (94%)
Writing library : x264 core 152 r2851 ba24899
Encoding settings : cabac=1 / ref=5 / deblock=1:-3:-3 / analyse=0x3:0x113 / me=umh / subme=8 / psy=1 / psy_rd=1.00:0.25 / mixed_ref=1 / me_range=24 / chroma_me=1 / trellis=1 / 8x8dct=1 / cqm=0 / deadzone=21,11 / fast_pskip=1 / chroma_qp_offset=-4 / threads=26 / lookahead_threads=4 / sliced_threads=0 / nr=0 / decimate=1 / interlaced=0 / bluray_compat=0 / constrained_intra=0 / bframes=3 / b_pyramid=2 / b_adapt=1 / b_bias=0 / direct=3 / weightb=1 / open_gop=0 / weightp=2 / keyint=240 / keyint_min=24 / scenecut=40 / intra_refresh=0 / rc_lookahead=50 / rc=2pass / mbtree=1 / bitrate=11844 / ratetol=1.0 / qcomp=0.60 / qpmin=0 / qpmax=69 / qpstep=4 / cplxblur=20.0 / qblur=0.5 / ip_ratio=1.40 / aq=1:0.75
Language : English
Default : Yes
Forced : No

Audio #1
ID : 2
Format : AC-3
Format/Info : Audio Coding 3
Format settings, Endianness : Big
Codec ID : A_AC3
Duration : 1 h 26 min
Bit rate mode : Constant
Bit rate : 256 kb/s
Channel(s) : 2 channels
Channel positions : Front: L R
Sampling rate : 48.0 kHz
Frame rate : 31.250 FPS (1536 SPF)
Bit depth : 16 bits
Compression mode : Lossy
Stream size : 159 MiB (2%)
Language : Russian
Service kind : Complete Main
Default : Yes
Forced : No

Audio #2
ID : 3
Format : AC-3
Format/Info : Audio Coding 3
Format settings, Endianness : Big
Codec ID : A_AC3
Duration : 1 h 26 min
Bit rate mode : Constant
Bit rate : 256 kb/s
Channel(s) : 2 channels
Channel positions : Front: L R
Sampling rate : 48.0 kHz
Frame rate : 31.250 FPS (1536 SPF)
Bit depth : 16 bits
Compression mode : Lossy
Stream size : 159 MiB (2%)
Language : English
Service kind : Complete Main
Default : No
Forced : No

Audio #3
ID : 4
Format : AC-3
Format/Info : Audio Coding 3
Format settings, Endianness : Big
Codec ID : A_AC3
Duration : 1 h 26 min
Bit rate mode : Constant
Bit rate : 256 kb/s
Channel(s) : 2 channels
Channel positions : Front: L R
Sampling rate : 48.0 kHz
Frame rate : 31.250 FPS (1536 SPF)
Bit depth : 16 bits
Compression mode : Lossy
Stream size : 159 MiB (2%)
Language : French
Service kind : Complete Main
Default : No
Forced : No

Text
ID : 5
Format : UTF-8
Codec ID : S_TEXT/UTF8
Codec ID/Info : UTF-8 Plain Text
Duration : 1 h 22 min
Bit rate : 43 b/s
Count of elements : 791
Stream size : 26.6 KiB (0%)
Language : English
Default : No
Forced : No

Menu
00:00:00.000 : en:00:00:00.000
00:02:52.422 : en:00:02:52.422
00:08:04.359 : en:00:08:04.359
00:12:24.619 : en:00:12:24.619
00:14:01.257 : en:00:14:01.257
00:17:48.276 : en:00:17:48.276
00:21:50.559 : en:00:21:50.559
00:24:55.244 : en:00:24:55.244
00:29:19.174 : en:00:29:19.174
00:32:54.973 : en:00:32:54.973
00:36:20.762 : en:00:36:20.762
00:40:45.735 : en:00:40:45.735
00:43:41.577 : en:00:43:41.577
00:46:09.350 : en:00:46:09.350
00:49:37.725 : en:00:49:37.725
00:53:28.872 : en:00:53:28.872
00:59:38.283 : en:00:59:38.283
01:01:50.790 : en:01:01:50.790
01:05:00.980 : en:01:05:00.980
01:08:58.217 : en:01:08:58.217
01:13:08.426 : en:01:13:08.426
01:16:37.718 : en:01:16:37.718
01:20:17.229 : en:01:20:17.229
01:23:28.337 : en:01:23:28.337


_________________
Проголосуй за трекер Открытый торрент трекер - RUS-MEDIA.ORG

Проголосуй Открытый торрент трекер - RUS-MEDIA.ORG


Скачать книги и аудио книги через торрент


Вернуться к началу
 Профиль Отправить личное сообщение  
 
   Похожие торренты   Автор   Торрент   Размер 
В этой теме нет новых непрочитанных сообщений. Ледовые пираты / The Ice Pirates [фантастика, боевик, комедия, 1984] BDRip 1080p, Mvo

salma3

0 | 0

5.89 ГБ

В этой теме нет новых непрочитанных сообщений. Ледовые пираты / The Ice Pirates [фантастика, боевик, комедия, 1984] BDRip, Mvo

salma3

0 | 0

1.45 ГБ

В этой теме нет новых непрочитанных сообщений. Пираты Сомали / The Pirates of Somalia [Драма, биография, 2017] HDRip, Mvo

salma3

0 | 0

747.05 МБ

В этой теме нет новых непрочитанных сообщений. Digital Playground - Пираты / Pirates (2005) DVDRip

zorgi

0 | 0

1.36 ГБ

В этой теме нет новых непрочитанных сообщений. Поворот реки / Turn the River [драма, 2007] BDRip, Mvo

salma3

0 | 0

1.45 ГБ

В этой теме нет новых непрочитанных сообщений. Излучина реки / Bend of the River [боевик, приключения, вестерн, 1951] HDRip, Mvo

salma3

0 | 1

1.45 ГБ

В этой теме нет новых непрочитанных сообщений. Плоть + кровь / Flesh+Blood [Драма, приключения, исторический, 1985] BDRip 1080p, Mvo

salma3

0 | 0

18.58 ГБ


Начать новую тему Ответить на тему  [ 1 сообщение ] 




Для Мосгорсуда, Роскомнадзора и рекламодателей:: rstracker[собака]yandex.ru
cron