COVID-19 - Последняя информация о коронавирусе на сайте Минздрава




Торрент файл
скачать торрент магнет ссылка Добавлен: 27 апр 2019, 20:17
Размер: 2.26 ГБ
Сидеров: 0
Личеров: 0
Статус: (salma3)
Автор

СообщениеДобавлено: 27 апр 2019, 20:17 

Не в сети
Супермодератор
Аватара пользователя
Дата регистрации:
15 фев 2012, 16:44
Возраст: 32
Спасибо: 8304 / 2148
Сообщения: 97085
Год выпуска: 2018
Жанр: Триллер, драма, детектив
Режиссер: Эрик С. Блумквист

В ролях: Адам Веплер, Катрин Коркоран, Николас Туччи

О фильме:
Когда Сет получает приглашение посетить особняк сводного брата-миллионера Ричарда, о существовании которого и не подозревал, он решает не отказываться. Неожиданно объявившийся родственник встречает парня в огромном поместье, оборудованном бассейном и домашним кинотеатром, но главной изюминкой дома оказывается Эбби — сексуальная красотка, живущая с Ричардом. Длительные выходные начинаются отлично, однако вызывающее поведение Эбби, а также странное отношение со стороны брата, заставляют Сета сомневаться в том, что его пригласили ради воссоединения семьи...



Выпущено: США, Mainframe Pictures
Продолжительность: 01:34:37
Перевод: Профессиональный (многоголосый, закадровый) | HDRezka Studio

Файл
Качество: WEB-DL 720p
Контейнер: MKV
Видео: MPEG-4 AVC, ~2618 Кбит/с, 1248x520
Аудио 1: Русский: AC3, 2 ch, 192 Кбит/с - HDRezka Studio
Аудио 2: Английский: E-AC3, 6 ch, 640 Кбит/с - Original
Субтитры: Английские

***Релиз от: -=DoMiNo=-

General
Unique ID : 75803581803178006757803453014711506923 (0x39073D22906253656D319F1AAC0C97EB)
Complete name : Давно потерянный.2018.720p.AMZN.WEB-DL.DDP5.1.H.264-NTG.mkv
Format : Matroska
Format version : Version 4
File size : 2.26 GiB
Duration : 1 h 33 min
Overall bit rate : 3 452 kb/s
Movie name : Давно потерянный / Long Lost (2018)
Encoded date : UTC 2019-04-27 15:03:14
Writing application : mkvmerge v33.1.0 ('Primrose') 64-bit
Writing library : libebml v1.3.7 + libmatroska v1.5.0
Attachments : 678.jpg

Video
ID : 1
Format : AVC
Format/Info : Advanced Video Codec
Format profile : High@L3.1
Format settings : CABAC / 4 Ref Frames
Format settings, CABAC : Yes
Format settings, Reference : 4 frames
Codec ID : V_MPEG4/ISO/AVC
Duration : 1 h 33 min
Bit rate mode : Constant
Bit rate : 2 618 kb/s
Nominal bit rate : 6 000 kb/s
Width : 1 248 pixels
Height : 520 pixels
Display aspect ratio : 2.40:1
Frame rate mode : Constant
Frame rate : 24.000 FPS
Color space : YUV
Chroma subsampling : 4:2:0
Bit depth : 8 bits
Scan type : Progressive
Bits/(Pixel*Frame) : 0.168
Stream size : 1.72 GiB (76%)
Language : English
Default : Yes
Forced : No
Color range : Limited
Color primaries : BT.709
Transfer characteristics : BT.709
Matrix coefficients : BT.709

Audio #1
ID : 2
Format : AC-3
Format/Info : Audio Coding 3
Commercial name : Dolby Digital
Codec ID : A_AC3
Duration : 1 h 33 min
Bit rate mode : Constant
Bit rate : 192 kb/s
Channel(s) : 2 channels
Channel layout : L R
Sampling rate : 48.0 kHz
Frame rate : 31.250 FPS (1536 SPF)
Bit depth : 16 bits
Compression mode : Lossy
Stream size : 129 MiB (6%)
Title : MVO_[HDRezka Studio]
Language : Russian
Service kind : Complete Main
Default : Yes
Forced : No

Audio #2
ID : 3
Format : E-AC-3
Format/Info : Enhanced AC-3
Commercial name : Dolby Digital Plus
Codec ID : A_EAC3
Duration : 1 h 33 min
Bit rate mode : Constant
Bit rate : 640 kb/s
Channel(s) : 6 channels
Channel layout : L R C LFE Ls Rs
Sampling rate : 48.0 kHz
Frame rate : 31.250 FPS (1536 SPF)
Compression mode : Lossy
Stream size : 430 MiB (19%)
Language : English
Service kind : Complete Main
Default : No
Forced : No

Text #1
ID : 4
Format : UTF-8
Codec ID : S_TEXT/UTF8
Codec ID/Info : UTF-8 Plain Text
Duration : 1 h 31 min
Bit rate : 64 b/s
Count of elements : 1743
Stream size : 43.5 KiB (0%)
Language : English
Default : No
Forced : No

Text #2
ID : 5
Format : UTF-8
Codec ID : S_TEXT/UTF8
Codec ID/Info : UTF-8 Plain Text
Duration : 1 h 31 min
Bit rate : 65 b/s
Count of elements : 1743
Stream size : 43.9 KiB (0%)
Title : SDH
Language : English
Default : No
Forced : No

Menu
00:00:00.000 : en:Глава 01
00:10:00.000 : en:Глава 02
00:20:00.000 : en:Глава 03
00:30:00.000 : en:Глава 04
00:40:00.000 : en:Глава 05
00:50:00.000 : en:Глава 06
01:00:00.000 : en:Глава 07
01:10:00.000 : en:Глава 08
01:20:00.000 : en:Глава 09
01:30:00.000 : en:Глава 10


_________________
Проголосуй за трекер Открытый торрент трекер - RUS-MEDIA.ORG

Проголосуй Открытый торрент трекер - RUS-MEDIA.ORG


Скачать книги и аудио книги через торрент


Вернуться к началу
 Профиль Отправить личное сообщение  
 
   Похожие торренты   Автор   Торрент   Размер 
В этой теме нет новых непрочитанных сообщений. Давно потерянный / Long Lost [Триллер, драма, детектив, 2018] WEB-DL 1080p, Mvo

salma3

0 | 0

4.79 ГБ

В этой теме нет новых непрочитанных сообщений. Нэнси / Nancy [триллер, драма, детектив, 2018] WEB-DLRip, MVO

K15

1 | 1

1.46 ГБ

В этой теме нет новых непрочитанных сообщений. Под покровом ночи / Beyond the Night [Триллер, драма, детектив, 2018] WEB-DL 1080p, Mvo

salma3

0 | 0

6.28 ГБ

В этой теме нет новых непрочитанных сообщений. Будто во сне / State Like Sleep [Драма, триллер, детектив, 2018] WEB-DLRip, Mvo

salma3

0 | 0

1.41 ГБ

В этой теме нет новых непрочитанных сообщений. Будто во сне / State Like Sleep [Драма, триллер, детектив, 2018] WEB-DLRip-AVC, Mvo

salma3

0 | 0

1.49 ГБ

В этой теме нет новых непрочитанных сообщений. Совершенство / The Perfection [Ужасы, триллер, драма, 2018] WEB-DL 720p, Mvo [Kerob]

salma3

0 | 0

2.42 ГБ

В этой теме нет новых непрочитанных сообщений. Nat Geo Wild: Потерянный рай Колумбии / Wild Colombia's Lost Eden (2016) HDTVRip | P1

salma3

0 | 0

610.22 МБ


Начать новую тему Ответить на тему  [ 1 сообщение ] 




Для Мосгорсуда, Роскомнадзора и рекламодателей:: rstracker[собака]yandex.ru
cron