COVID-19 - Последняя информация о коронавирусе на сайте Минздрава




Торрент файл
скачать торрент магнет ссылка Добавлен: 19 апр 2019, 12:14
Размер: 24.88 ГБ
Сидеров: 0
Личеров: 0
Статус: (salma3)
Автор

СообщениеДобавлено: 19 апр 2019, 12:14 

Не в сети
Супермодератор
Аватара пользователя
Дата регистрации:
15 фев 2012, 16:44
Возраст: 32
Спасибо: 8304 / 2148
Сообщения: 97082
Год выхода: 2019
Жанр: Фэнтези, приключения, семейный
Режиссер: Джо Корниш

В ролях: Луис Эшборн Серкис, Денис Гоф, Дин Чаму, Том Тейлор, Рианна Доррис, Нэйтан Стюарт-Джарретт, Нома Думезвени, Ребекка Фергюсон (II), Марк Боннар, Энгус Имри

О фильме:
Повседневные проблемы 12-летнего Алекса отходят на второй план после того, как он находит легендарный Экскалибур. И теперь, когда меч короля Артура оказывается в руках самого неудачливого подростка в Британии, начинается грандиозное приключение, в ходе которого Алекс и его друзья должны остановить злую средневековую волшебницу Моргану и не дать ей уничтожить мир.



Страна: Великобритания, США
Продолжительность: 02:00:08
Перевод: Дублированный [iTunes]

Качество: BDRemux 1080p
Видео: MPEG-4 AVC, 1920x1080, 24 Mbit/s, 23.976 fps
Аудио #01: 48 kHz, AC3, 5.1, 384 Kbps | iTunes | RUS
Аудио #02: 48 kHz, AAC, 2.0, 126 Kbps | iTunes | UKR
Аудио #03: 48 kHz, TrueHD, 7.1, 4449 Kbps | Оригинал | ENG
Аудио #04: 48 kHz, AC3, 5.1, 640 Kbps | Оригинал | ENG
Субтитры: Русские (Forced, full), украинские (Forced, full), английские

General
Unique ID : 104419648082005031128421156678696663359 (0x4E8E7E21BDC480C6489D9184B0DF793F)
Complete name : D:Video111Blu rayThe.Kid.Who.Would.Be.King.2019.BDREMUX.1080p.seleZen.mkv
Format : Matroska
Format version : Version 4
File size : 24.9 GiB
Duration : 2 h 0 min
Overall bit rate mode : Variable
Overall bit rate : 29.7 Mb/s
Movie name : The Kid Who Would Be King 2019 from селезень
Encoded date : UTC 2019-04-18 21:05:43
Writing application : mkvmerge v32.0.0 ('Astral Progressions') 64-bit
Writing library : libebml v1.3.7 + libmatroska v1.5.0

Video
ID : 1
Format : AVC
Format/Info : Advanced Video Codec
Format profile : High@L4.1
Format settings : CABAC / 4 Ref Frames
Format settings, CABAC : Yes
Format settings, ReFrames : 4 frames
Codec ID : V_MPEG4/ISO/AVC
Duration : 2 h 0 min
Bit rate mode : Variable
Bit rate : 24.0 Mb/s
Maximum bit rate : 31.0 Mb/s
Width : 1 920 pixels
Height : 1 080 pixels
Display aspect ratio : 16:9
Frame rate mode : Constant
Frame rate : 23.976 (24000/1001) FPS
Color space : YUV
Chroma subsampling : 4:2:0
Bit depth : 8 bits
Scan type : Progressive
Bits/(Pixel*Frame) : 0.482
Stream size : 20.1 GiB (81%)
Language : English
Default : Yes
Forced : No

Audio #1
ID : 2
Format : AC-3
Format/Info : Audio Coding 3
Commercial name : Dolby Digital
Codec ID : A_AC3
Duration : 2 h 0 min
Bit rate mode : Constant
Bit rate : 384 kb/s
Channel(s) : 6 channels
Channel layout : L R C LFE Ls Rs
Sampling rate : 48.0 kHz
Frame rate : 31.250 FPS (1536 SPF)
Bit depth : 16 bits
Compression mode : Lossy
Stream size : 330 MiB (1%)
Title : iTunes
Language : Russian
Service kind : Complete Main
Default : Yes
Forced : Yes

Audio #2
ID : 3
Format : AAC LC
Format/Info : Advanced Audio Codec Low Complexity
Codec ID : A_AAC-2
Duration : 2 h 0 min
Bit rate : 126 kb/s
Channel(s) : 2 channels
Channel layout : L R
Sampling rate : 48.0 kHz
Frame rate : 46.875 FPS (1024 SPF)
Compression mode : Lossy
Stream size : 109 MiB (0%)
Title : iTunes
Language : Ukrainian
Default : No
Forced : No

Audio #3
ID : 4
Format : MLP FBA 16-ch
Format/Info : Meridian Lossless Packing FBA with 16-channel presentation
Commercial name : Dolby TrueHD with Dolby Atmos
Codec ID : A_TRUEHD
Duration : 2 h 0 min
Bit rate mode : Variable
Bit rate : 4 449 kb/s
Maximum bit rate : 8 607 kb/s
Channel(s) : 8 channels
Channel layout : L R C LFE Ls Rs Lb Rb
Sampling rate : 48.0 kHz
Frame rate : 1 200.000 FPS (40 SPF)
Compression mode : Lossless
Stream size : 3.73 GiB (15%)
Title : Original
Language : English
Default : No
Forced : No
Number of dynamic objects : 13
Bed channel count : 1 channel
Bed channel configuration : LFE

Audio #4
ID : 5
Format : AC-3
Format/Info : Audio Coding 3
Commercial name : Dolby Digital
Codec ID : A_AC3
Duration : 2 h 0 min
Bit rate mode : Constant
Bit rate : 640 kb/s
Channel(s) : 6 channels
Channel layout : L R C LFE Ls Rs
Sampling rate : 48.0 kHz
Frame rate : 31.250 FPS (1536 SPF)
Bit depth : 16 bits
Compression mode : Lossy
Stream size : 550 MiB (2%)
Language : English
Service kind : Complete Main
Default : No
Forced : No

Text #1
ID : 6
Format : UTF-8
Codec ID : S_TEXT/UTF8
Codec ID/Info : UTF-8 Plain Text
Duration : 1 h 59 min
Bit rate : 1 b/s
Count of elements : 31
Stream size : 1.20 KiB (0%)
Title : Forced
Language : Russian
Default : Yes
Forced : Yes

Text #2
ID : 7
Format : UTF-8
Codec ID : S_TEXT/UTF8
Codec ID/Info : UTF-8 Plain Text
Duration : 1 h 59 min
Bit rate : 86 b/s
Count of elements : 1604
Stream size : 75.3 KiB (0%)
Title : Full
Language : Russian
Default : No
Forced : No

Text #3
ID : 8
Format : UTF-8
Codec ID : S_TEXT/UTF8
Codec ID/Info : UTF-8 Plain Text
Duration : 1 h 59 min
Bit rate : 0 b/s
Count of elements : 17
Stream size : 642 Bytes (0%)
Title : Forced
Language : Ukrainian
Default : No
Forced : No

Text #4
ID : 9
Format : UTF-8
Codec ID : S_TEXT/UTF8
Codec ID/Info : UTF-8 Plain Text
Duration : 1 h 59 min
Bit rate : 81 b/s
Count of elements : 1604
Stream size : 71.2 KiB (0%)
Title : Full
Language : Ukrainian
Default : No
Forced : No

Text #5
ID : 10
Format : UTF-8
Codec ID : S_TEXT/UTF8
Codec ID/Info : UTF-8 Plain Text
Duration : 1 h 59 min
Bit rate : 51 b/s
Count of elements : 1640
Stream size : 45.2 KiB (0%)
Title : Full
Language : English
Default : No
Forced : No

Text #6
ID : 11
Format : UTF-8
Codec ID : S_TEXT/UTF8
Codec ID/Info : UTF-8 Plain Text
Duration : 1 h 59 min
Bit rate : 62 b/s
Count of elements : 2010
Stream size : 54.6 KiB (0%)
Title : SDH
Language : English
Default : No
Forced : No

Menu
00:00:00.000 : en:Chapter 01
00:06:30.014 : en:Chapter 02
00:11:41.200 : en:Chapter 03
00:15:52.868 : en:Chapter 04
00:20:21.762 : en:Chapter 05
00:27:00.410 : en:Chapter 06
00:34:03.958 : en:Chapter 07
00:40:08.239 : en:Chapter 08
00:43:21.181 : en:Chapter 09
00:47:42.734 : en:Chapter 10
00:55:36.291 : en:Chapter 11
00:59:38.324 : en:Chapter 12
01:06:51.215 : en:Chapter 13
01:11:45.551 : en:Chapter 14
01:17:40.614 : en:Chapter 15
01:21:47.903 : en:Chapter 16
01:25:25.537 : en:Chapter 17
01:27:57.772 : en:Chapter 18
01:31:37.033 : en:Chapter 19
01:33:56.881 : en:Chapter 20
01:38:30.779 : en:Chapter 21
01:44:10.994 : en:Chapter 22
01:50:55.357 : en:Chapter 23
01:53:32.847 : en:Chapter 24


Релиз от:


_________________
Проголосуй за трекер Открытый торрент трекер - RUS-MEDIA.ORG

Проголосуй Открытый торрент трекер - RUS-MEDIA.ORG


Скачать книги и аудио книги через торрент


Вернуться к началу
 Профиль Отправить личное сообщение  
 
   Похожие торренты   Автор   Торрент   Размер 
В этой теме нет новых непрочитанных сообщений. Рождённый стать королем / The Kid Who Would Be King [Фэнтези, приключения, семейный, 2019] BDRip 1080p, Dub [iTunes]

salma3

0 | 0

10.11 ГБ

В этой теме нет новых непрочитанных сообщений. Рождённый стать королем / The Kid Who Would Be King [Фэнтези, приключения, семейный, 2019] BDRip 720p, Dub [iTunes]

salma3

0 | 1

5.47 ГБ

В этой теме нет новых непрочитанных сообщений. Рождённый стать королем / The Kid Who Would Be King [Фэнтези, боевик, приключения, 2019] BDRip, Dub [iTunes]

salma3

0 | 0

2.13 ГБ

В этой теме нет новых непрочитанных сообщений. Рождённый стать королем / The Kid Who Would Be King [Фэнтези, боевик, приключения, 2019] BDRip, Dub [iTunes]

salma3

110 | 32

1.41 ГБ

В этой теме нет новых непрочитанных сообщений. Рождённый стать королем / The Kid Who Would Be King [Фэнтези, боевик, приключения, 2019] BDRip 1080p, Dub [Лицензия]

salma3

0 | 2

14.12 ГБ

В этой теме нет новых непрочитанных сообщений. Рождённый стать королём / The Kid Who Would Be King [фэнтези, боевик, приключения, 2019] Blu-ray EUR 1080p, Dub [Лицензия]

salma3

1 | 13

43.46 ГБ

В этой теме нет новых непрочитанных сообщений. Рождённый стать королем / The Kid Who Would Be King [Фэнтези, боевик, приключения, 2019] BDRip, Dub [Лицензия]

salma3

0 | 1

1.46 ГБ


Начать новую тему Ответить на тему  [ 1 сообщение ] 




Для Мосгорсуда, Роскомнадзора и рекламодателей:: rstracker[собака]yandex.ru
cron