COVID-19 - Последняя информация о коронавирусе на сайте Минздрава




Торрент файл
скачать торрент магнет ссылка Добавлен: 01 апр 2019, 11:41
Размер: 15.27 ГБ
Сидеров: 0
Личеров: 0
Статус: (salma3)
Автор

СообщениеДобавлено: 01 апр 2019, 11:41 

Не в сети
Супермодератор
Аватара пользователя
Дата регистрации:
15 фев 2012, 16:44
Возраст: 30
Спасибо: 8263 / 2148
Сообщения: 96287
Год выхода: 1965
Страна: Италия, Испания, Германия
Жанр: Вестерн, боевик
Продолжительность: 02:11:35

Перевод: Профессиональный (многоголосый закадровый) x5, Профессиональный (двухголосый закадровый) x2, Авторский (одноголосый закадровый) x6
Субтитры: Русские, английские

Режиссер: Серджио Леоне

В ролях: Клинт Иствуд, Ли Ван Клиф, Жиан Мария Волонте, Клаус Кински, Луиджи Пистилли, Мара Круп, Йозеф Эггер, Бенито Стефанелли и Марио Брега

О фильме: Заработать несколько лишних долларов честным путем на диком Западе не проблема, если у тебя есть проверенный кольт и разрешение властей на отстрел бандитов. Этим путем и идут бок о бок профессиональные охотники за головами негодяев «Человек без имени» и полковник Мортимер, общая цель которых — преступная банда мексиканца Индио.



Файл
Качество: BDRip 1080p
Формат: MKV
Видео кодек: x264
Аудио кодек: AC3
Видео: MPEG4 Video (H264), 1920x824, 23.976 fps, 12.0 Mbps
Аудио #01: Русский, Dolby AC3, 48000 Hz, 6ch, 384 kbps - Многоголосый, CEE
Аудио #02: Русский, Dolby AC3, 48000 Hz, 6ch, 384 kbps - Многоголосый, 5 канал
Аудио #03: Русский, Dolby AC3, 48000 Hz, 6ch, 384 kbps - Многоголосый
Аудио #04: Русский, Dolby AC3, 48000 Hz, 6ch, 384 kbps - Многоголосый, Somewax
Аудио #05: Русский, Dolby AC3, 48000 Hz, 6ch, 384 kbps - Многоголосый, ОРТ
Аудио #06: Русский, Dolby AC3, 48000 Hz, 6ch, 384 kbps - Двухголосый, Союз - Совенчер
Аудио #07: Русский, Dolby AC3, 48000 Hz, 6ch, 384 kbps - Двухголосый, П. Гланц - И. Королёва
Аудио #08: Русский, Dolby AC3, 48000 Hz, 6ch, 384 kbps - Одноголосый, Д. Пучков (Гоблин)
Аудио #09: Русский, Dolby AC3, 48000 Hz, 6ch, 384 kbps - Одноголосый, В. Горчаков
Аудио #10: Русский, Dolby AC3, 48000 Hz, 6ch, 384 kbps - Одноголосый, А. Гаврилов
Аудио #11: Русский, Dolby AC3, 48000 Hz, 2ch, 192 kbps - Одноголосый
Аудио #12: Русский, Dolby AC3, 48000 Hz, 2ch, 192 kbps - Одноголосый, А. Марченко
Аудио #13: Английский, Dolby AC3, 48000 Hz, 6ch, 384 kbps
Формат субтитров: softsub (SRT)

Сэмпл
General
Unique ID : 193536408925705602347675074736172951736 (0x9199C1ABD04E69B4A94F0D876839E8B8)
Complete name : C:00DVDRip1965 На несколько долларов больше (Remastered)1965 На несколько долларов больше (Remastered).mkv
Format : Matroska
Format version : Version 4
File size : 15.3 GiB
Duration : 2 h 11 min
Overall bit rate : 16.6 Mb/s
Movie name : 1965 На несколько долларов больше (Remastered)/likko
Encoded date : UTC 2019-04-01 06:36:06
Writing application : mkvmerge v8.3.0 ('Over the Horizon') 64bit
Writing library : libebml v1.3.1 + libmatroska v1.4.2
Cover : Yes
Attachments : cover.png

Video
ID : 1
Format : AVC
Format/Info : Advanced Video Codec
Format profile : High@L4.1
Format settings : CABAC / 5 Ref Frames
Format settings, CABAC : Yes
Format settings, ReFrames : 5 frames
Codec ID : V_MPEG4/ISO/AVC
Duration : 2 h 11 min
Bit rate : 12.0 Mb/s
Width : 1 920 pixels
Height : 824 pixels
Display aspect ratio : 2.35:1
Frame rate mode : Constant
Frame rate : 23.976 (24000/1001) FPS
Color space : YUV
Chroma subsampling : 4:2:0
Bit depth : 8 bits
Scan type : Progressive
Bits/(Pixel*Frame) : 0.316
Stream size : 11.0 GiB (72%)
Title : 1965 На несколько долларов больше (Remastered)
Writing library : x264 core 148 r2638 7599210
Encoding settings : cabac=1 / ref=5 / deblock=1:-1:-1 / analyse=0x3:0x133 / me=umh / subme=11 / psy=1 / psy_rd=1.00:0.15 / mixed_ref=1 / me_range=48 / chroma_me=1 / trellis=2 / 8x8dct=1 / cqm=0 / deadzone=21,11 / fast_pskip=0 / chroma_qp_offset=-3 / threads=18 / lookahead_threads=4 / sliced_threads=0 / nr=0 / decimate=1 / interlaced=0 / bluray_compat=0 / constrained_intra=0 / bframes=10 / b_pyramid=2 / b_adapt=2 / b_bias=0 / direct=3 / weightb=1 / open_gop=0 / weightp=2 / keyint=250 / keyint_min=23 / scenecut=40 / intra_refresh=0 / rc=2pass / mbtree=0 / bitrate=12000 / ratetol=1.0 / qcomp=0.60 / qpmin=0 / qpmax=69 / qpstep=4 / cplxblur=20.0 / qblur=0.5 / ip_ratio=1.40 / pb_ratio=1.30 / aq=2:1.00
Language : English
Default : Yes
Forced : No

Audio #1
ID : 2
Format : AC-3
Format/Info : Audio Coding 3
Commercial name : Dolby Digital
Codec ID : A_AC3
Duration : 2 h 11 min
Bit rate mode : Constant
Bit rate : 384 kb/s
Channel(s) : 6 channels
Channel layout : L R C LFE Ls Rs
Sampling rate : 48.0 kHz
Frame rate : 31.250 FPS (1536 SPF)
Bit depth : 16 bits
Compression mode : Lossy
Stream size : 361 MiB (2%)
Title : Многоголосый, CEE
Language : Russian
Service kind : Complete Main
Default : Yes
Forced : No

Audio #2
ID : 3
Format : AC-3
Format/Info : Audio Coding 3
Commercial name : Dolby Digital
Codec ID : A_AC3
Duration : 2 h 11 min
Bit rate mode : Constant
Bit rate : 384 kb/s
Channel(s) : 6 channels
Channel layout : L R C LFE Ls Rs
Sampling rate : 48.0 kHz
Frame rate : 31.250 FPS (1536 SPF)
Bit depth : 16 bits
Compression mode : Lossy
Stream size : 361 MiB (2%)
Title : Многоголосый, 5 канал
Language : Russian
Service kind : Complete Main
Default : No
Forced : No

Audio #3
ID : 4
Format : AC-3
Format/Info : Audio Coding 3
Commercial name : Dolby Digital
Codec ID : A_AC3
Duration : 2 h 11 min
Bit rate mode : Constant
Bit rate : 384 kb/s
Channel(s) : 6 channels
Channel layout : L R C LFE Ls Rs
Sampling rate : 48.0 kHz
Frame rate : 31.250 FPS (1536 SPF)
Bit depth : 16 bits
Compression mode : Lossy
Stream size : 361 MiB (2%)
Title : Многоголосый
Language : Russian
Service kind : Complete Main
Default : No
Forced : No

Audio #4
ID : 5
Format : AC-3
Format/Info : Audio Coding 3
Commercial name : Dolby Digital
Codec ID : A_AC3
Duration : 2 h 11 min
Bit rate mode : Constant
Bit rate : 384 kb/s
Channel(s) : 6 channels
Channel layout : L R C LFE Ls Rs
Sampling rate : 48.0 kHz
Frame rate : 31.250 FPS (1536 SPF)
Bit depth : 16 bits
Compression mode : Lossy
Stream size : 361 MiB (2%)
Title : Многоголосый, Somewax
Language : Russian
Service kind : Complete Main
Default : No
Forced : No

Audio #5
ID : 6
Format : AC-3
Format/Info : Audio Coding 3
Commercial name : Dolby Digital
Codec ID : A_AC3
Duration : 2 h 11 min
Bit rate mode : Constant
Bit rate : 384 kb/s
Channel(s) : 6 channels
Channel layout : L R C LFE Ls Rs
Sampling rate : 48.0 kHz
Frame rate : 31.250 FPS (1536 SPF)
Bit depth : 16 bits
Compression mode : Lossy
Stream size : 361 MiB (2%)
Title : Многоголосый, ОРТ
Language : Russian
Service kind : Complete Main
Default : No
Forced : No

Audio #6
ID : 7
Format : AC-3
Format/Info : Audio Coding 3
Commercial name : Dolby Digital
Codec ID : A_AC3
Duration : 2 h 11 min
Bit rate mode : Constant
Bit rate : 384 kb/s
Channel(s) : 6 channels
Channel layout : L R C LFE Ls Rs
Sampling rate : 48.0 kHz
Frame rate : 31.250 FPS (1536 SPF)
Bit depth : 16 bits
Compression mode : Lossy
Stream size : 361 MiB (2%)
Title : Двухголосый, Союз - Совенчер
Language : Russian
Service kind : Complete Main
Default : No
Forced : No

Audio #7
ID : 8
Format : AC-3
Format/Info : Audio Coding 3
Commercial name : Dolby Digital
Codec ID : A_AC3
Duration : 2 h 11 min
Bit rate mode : Constant
Bit rate : 384 kb/s
Channel(s) : 6 channels
Channel layout : L R C LFE Ls Rs
Sampling rate : 48.0 kHz
Frame rate : 31.250 FPS (1536 SPF)
Bit depth : 16 bits
Compression mode : Lossy
Stream size : 361 MiB (2%)
Title : Двухголосый, П. Гланц - И. Королёва
Language : Russian
Service kind : Complete Main
Default : No
Forced : No

Audio #8
ID : 9
Format : AC-3
Format/Info : Audio Coding 3
Commercial name : Dolby Digital
Codec ID : A_AC3
Duration : 2 h 11 min
Bit rate mode : Constant
Bit rate : 384 kb/s
Channel(s) : 6 channels
Channel layout : L R C LFE Ls Rs
Sampling rate : 48.0 kHz
Frame rate : 31.250 FPS (1536 SPF)
Bit depth : 16 bits
Compression mode : Lossy
Stream size : 361 MiB (2%)
Title : Одноголосый, Д. Пучков (Гоблин)
Language : Russian
Service kind : Complete Main
Default : No
Forced : No

Audio #9
ID : 10
Format : AC-3
Format/Info : Audio Coding 3
Commercial name : Dolby Digital
Codec ID : A_AC3
Duration : 2 h 11 min
Bit rate mode : Constant
Bit rate : 384 kb/s
Channel(s) : 6 channels
Channel layout : L R C LFE Ls Rs
Sampling rate : 48.0 kHz
Frame rate : 31.250 FPS (1536 SPF)
Bit depth : 16 bits
Compression mode : Lossy
Stream size : 361 MiB (2%)
Title : Одноголосый, В. Горчаков
Language : Russian
Service kind : Complete Main
Default : No
Forced : No

Audio #10
ID : 11
Format : AC-3
Format/Info : Audio Coding 3
Commercial name : Dolby Digital
Codec ID : A_AC3
Duration : 2 h 11 min
Bit rate mode : Constant
Bit rate : 384 kb/s
Channel(s) : 6 channels
Channel layout : L R C LFE Ls Rs
Sampling rate : 48.0 kHz
Frame rate : 31.250 FPS (1536 SPF)
Bit depth : 16 bits
Compression mode : Lossy
Stream size : 361 MiB (2%)
Title : Одноголосый, А. Гаврилов
Language : Russian
Service kind : Complete Main
Default : No
Forced : No

Audio #11
ID : 12
Format : AC-3
Format/Info : Audio Coding 3
Commercial name : Dolby Digital
Codec ID : A_AC3
Duration : 2 h 11 min
Bit rate mode : Constant
Bit rate : 192 kb/s
Channel(s) : 2 channels
Channel layout : L R
Sampling rate : 48.0 kHz
Frame rate : 31.250 FPS (1536 SPF)
Bit depth : 16 bits
Compression mode : Lossy
Stream size : 181 MiB (1%)
Title : Одноголосый
Language : Russian
Service kind : Complete Main
Default : No
Forced : No

Audio #12
ID : 13
Format : AC-3
Format/Info : Audio Coding 3
Commercial name : Dolby Digital
Codec ID : A_AC3
Duration : 2 h 11 min
Bit rate mode : Constant
Bit rate : 192 kb/s
Channel(s) : 2 channels
Channel layout : L R
Sampling rate : 48.0 kHz
Frame rate : 31.250 FPS (1536 SPF)
Bit depth : 16 bits
Compression mode : Lossy
Stream size : 181 MiB (1%)
Title : Одноголосый, А. Марченко
Language : Russian
Service kind : Complete Main
Default : No
Forced : No

Audio #13
ID : 14
Format : AC-3
Format/Info : Audio Coding 3
Commercial name : Dolby Digital
Codec ID : A_AC3
Duration : 2 h 11 min
Bit rate mode : Constant
Bit rate : 384 kb/s
Channel(s) : 6 channels
Channel layout : L R C LFE Ls Rs
Sampling rate : 48.0 kHz
Frame rate : 31.250 FPS (1536 SPF)
Bit depth : 16 bits
Compression mode : Lossy
Stream size : 361 MiB (2%)
Language : English
Service kind : Complete Main
Default : No
Forced : No

Text #1
ID : 15
Format : UTF-8
Codec ID : S_TEXT/UTF8
Codec ID/Info : UTF-8 Plain Text
Duration : 2 h 7 min
Bit rate : 39 b/s
Count of elements : 759
Stream size : 36.4 KiB (0%)
Language : Russian
Default : No
Forced : No

Text #2
ID : 16
Format : UTF-8
Codec ID : S_TEXT/UTF8
Codec ID/Info : UTF-8 Plain Text
Duration : 2 h 4 min
Bit rate : 25 b/s
Count of elements : 743
Stream size : 23.0 KiB (0%)
Language : English
Default : No
Forced : No

Menu
00:00:00.000 : en:Chapter 01
00:12:20.698 : en:Chapter 02
00:23:44.714 : en:Chapter 03
00:35:25.039 : en:Chapter 04
00:51:30.003 : en:Chapter 05
01:10:21.258 : en:Chapter 06
01:27:04.052 : en:Chapter 07
01:50:26.661 : en:Chapter 08





_________________
Проголосуй за трекер Открытый торрент трекер - RUS-MEDIA.ORG

Проголосуй Открытый торрент трекер - RUS-MEDIA.ORG


Скачать книги и аудио книги через торрент


Вернуться к началу
 Профиль Отправить личное сообщение  
 
   Похожие торренты   Автор   Торрент   Размер 
В этой теме нет новых непрочитанных сообщений. За пригоршню долларов / Per un pugno di dollari / A Fistful of Dollars [вестерн, 1964] BDRemux 1080р, Mvo [4K Restoration]

salma3

0 | 0

23.46 ГБ

В этой теме нет новых непрочитанных сообщений. Пистолет для Ринго / Una pistola per Ringo [боевик, драма, вестерн, 1965] BDRip, Mvo

salma3

0 | 0

1.45 ГБ

В этой теме нет новых непрочитанных сообщений. Тысяча миллиардов долларов / Mille milliards de dollars [триллер, драма, криминал, 1982] HDTVRip-AVC, Dub

salma3

0 | 0

2.75 ГБ

В этой теме нет новых непрочитанных сообщений. Возвращение Ринго / Il ritorno di Ringo [боевик, драма, вестерн, 1965] BDRip, Avo

salma3

0 | 0

1.45 ГБ

В этой теме нет новых непрочитанных сообщений. Непрощенный / Unforgiven [Драма, вестерн, 1992] BDRip 1080p, Dub [Remastered]

salma3

0 | 0

11.65 ГБ

В этой теме нет новых непрочитанных сообщений. Непрощенный / Unforgiven [Драма, вестерн, 1992] BDRip 1080p, Dub [Remastered]

salma3

0 | 0

12.41 ГБ

В этой теме нет новых непрочитанных сообщений. Непрощенный / Unforgiven [Драма, Вестерн, 1992] BDRip-HEVC 1080p, Dub [Remastered]

salma3

0 | 0

6.31 ГБ


Начать новую тему Ответить на тему  [ 1 сообщение ] 




Для Мосгорсуда, Роскомнадзора и рекламодателей:: rstracker[собака]yandex.ru
cron