COVID-19 - Последняя информация о коронавирусе на сайте Минздрава




Торрент файл
скачать торрент магнет ссылка Добавлен: 29 мар 2019, 21:05
Размер: 5.29 ГБ
Сидеров: 7
Личеров: 1
Статус: (salma3)
Автор

СообщениеДобавлено: 29 мар 2019, 21:05 

Не в сети
Супермодератор
Аватара пользователя
Дата регистрации:
15 фев 2012, 16:44
Возраст: 31
Спасибо: 8281 / 2148
Сообщения: 96721
Год выхода: 2014
Жанр: Боевик, триллер, драма
Режиссер: Скотт Во / Scott Waugh

В ролях: Аарон Пол, Доминик Купер, Имоджен Путс, Дакота Джонсон, Майкл Китон, Рамон Родригес, Ник Чинланд, Скотт Мескади, Рами Малек, Харрисон Джилбертсон

О фильме:
История Тоби Маршалла, гениального автомеханика, чьей единственной отдушиной является участие в подпольных гонках. Чтобы сохранить семейную мастерскую, Тоби вынужден взять в партнеры богатого и заносчивого бывшего гонщика NASCAR Дино Брюстера. Когда дела Тоби наконец-то начинают идти в гору, Дино подставляет партнера, и Тоби обвиняют в преступлении, которого он не совершал. Спустя два года Тоби выходит из тюрьмы с мыслью о мести. Чтобы достичь своей цели, ему придется совершить невозможное и доказать, что даже в мире броских суперкаров самый невзрачный гонщик может финишировать первым.



Страна: США, Филиппины, Ирландия, Великобритания
Продолжительность: 02:10:55
Перевод: Профессиональный (дублированный)

Файл
Кодек: h.264
Качество: WEBRip 1080p
Видео: AVC/H264, 1920x1080, 23.976 fps, 4778 kbps
Аудио 1: русский (AC3, 6 ch, 48 kHz, 448 kbps) |Дубляж|
Аудио 2: английский (AC3, 6 ch, 48 kHz, 448 kbps)
Субтитры: Русские (Full), Английские (Full)

General
UniqueID : 184868100664465246424965618415059598935 (0x8B144D13C95B25229470F10A7693FE57)
Complete name : D:Need for Speed (2014) Open Matte.mkv
Format : Matroska
File size : 5.29 GiB
Duration : 2h 10mn
Overall bit rate : 5 789 Kbps
Encoded date : UTC 2019-03-29 13:50:05
Writing application : mkvmerge v8.3.0 ('Over the Horizon') 32bit
Writing library : libebml v1.3.1 + libmatroska v1.4.2

Video
ID : 1
Format : AVC
Format/Info : Advanced Video Codec
Format profile : High@L4.0
Format settings, CABAC : Yes
Format settings, ReFrames : 4 frames
Format settings, GOP : M=7, N=16
Codec ID : V_MPEG4/ISO/AVC
Duration : 2h 10mn
Bit rate : 4 778 Kbps
Nominal bit rate : 5 120 Kbps
Width : 1 920 pixels
Height : 1 080 pixels
Display aspect ratio : 16:9
Frame rate mode : Variable
Frame rate : 23.976 fps
Color space : YUV
Chroma subsampling : 4:2:0
Bit depth : 8 bits
Scan type : Progressive
Bits/(Pixel*Frame) : 0.096
Stream size : 4.37 GiB (83%)
Writing library : x264 core 142
Encoding settings : cabac=1 / ref=3 / deblock=1:0:0 / analyse=0x3:0x113 / me=hex / subme=7 / psy=1 / psy_rd=1.00:0.00 / mixed_ref=1 / me_range=16 / chroma_me=1 / trellis=1 / 8x8dct=1 / cqm=0 / deadzone=21,11 / fast_pskip=1 / chroma_qp_offset=-2 / threads=84 / lookahead_threads=8 / sliced_threads=0 / nr=0 / decimate=1 / interlaced=0 / bluray_compat=0 / constrained_intra=0 / bframes=6 / b_pyramid=2 / b_adapt=1 / b_bias=0 / direct=1 / weightb=1 / open_gop=0 / weightp=2 / keyint=50 / keyint_min=26 / scenecut=0 / intra_refresh=0 / rc_lookahead=40 / rc=2pass / mbtree=1 / bitrate=5120 / ratetol=1.0 / qcomp=0.60 / qpmin=0 / qpmax=69 / qpstep=4 / cplxblur=20.0 / qblur=0.5 / vbv_maxrate=7680 / vbv_bufsize=20480 / nal_hrd=none / filler=0 / ip_ratio=1.40 / aq=1:1.00

Audio #1
ID : 2
Format : AC-3
Format/Info : Audio Coding 3
Mode extension : CM (complete main)
Codec ID : A_AC3
Duration : 2h 10mn
Bit rate mode : Constant
Bit rate : 448 Kbps
Channel(s) : 6 channels
Channel positions : Front: L C R, Side: L R, LFE
Sampling rate : 48.0 KHz
Bit depth : 16 bits
Compression mode : Lossy
Video delay : 8ms
Stream size : 420 MiB (8%)
Language : Russian

Audio #2
ID : 3
Format : AC-3
Format/Info : Audio Coding 3
Mode extension : CM (complete main)
Codec ID : A_AC3
Duration : 2h 10mn
Bit rate mode : Constant
Bit rate : 448 Kbps
Channel(s) : 6 channels
Channel positions : Front: L C R, Side: L R, LFE
Sampling rate : 48.0 KHz
Bit depth : 16 bits
Compression mode : Lossy
Video delay : 8ms
Stream size : 420 MiB (8%)
Language : English

Text #1
ID : 4
Format : UTF-8
Codec ID : S_TEXT/UTF8
Codec ID/Info : UTF-8 Plain Text
Language : Russian

Text #2
ID : 5
Format : UTF-8
Codec ID : S_TEXT/UTF8
Codec ID/Info : UTF-8 Plain Text
Language : English
Open Matte версия фильма имеет другое наполнение кадра. Исходник с онлайн кинотеатра ivi





_________________
Проголосуй за трекер Открытый торрент трекер - RUS-MEDIA.ORG

Проголосуй Открытый торрент трекер - RUS-MEDIA.ORG


Скачать книги и аудио книги через торрент


Вернуться к началу
 Профиль Отправить личное сообщение  
 
   Похожие торренты   Автор   Торрент   Размер 
В этой теме нет новых непрочитанных сообщений. Могучие рейнджеры / Power Rangers [Фантастика, боевик, приключения, 2017] WEBRip 1080p, Dub [Open Matte] [Локализованная версия]

salma3

1 | 1

5.03 ГБ

В этой теме нет новых непрочитанных сообщений. Боевой конь / War Horse [драма, военный, 2011] WEBRip 1080p, Dub [Open Matte] [Локализованная версия]

salma3

0 | 0

5.95 ГБ

В этой теме нет новых непрочитанных сообщений. Планета обезьян: Война / War for the Planet of the Apes [фантастика, боевик, триллер, 2017] WEBRip-AVC, Dub [Open Matte] [Локализованная версия]

salma3

0 | 1

2.83 ГБ

В этой теме нет новых непрочитанных сообщений. Земля будущего / Tomorrowland [Фантастика, боевик, детектив, 2015] WEBRip-AVC, Dub [Open Matte] [Локализованная версия]

salma3

0 | 0

2.47 ГБ

В этой теме нет новых непрочитанных сообщений. План игры / The Game Plan [комедия, семейный, спорт, 2007] WEBRip 1080p, Dub [Open Matte] [Локализованная версия]

salma3

0 | 0

3.6 ГБ

В этой теме нет новых непрочитанных сообщений. Оз: Великий и Ужасный / Oz the Great and Powerful [фэнтези, приключения, комедия, 2013] WEBRip 1080p, Dub [Open Matte] [Локализованная версия]

salma3

0 | 0

5.28 ГБ

В этой теме нет новых непрочитанных сообщений. Живая сталь / Real Steel [фантастика, боевик, семейный, 2011] WEBRip-AVC, Dub [Open Matte] [Локализованная версия]

salma3

0 | 0

1.45 ГБ


Начать новую тему Ответить на тему  [ 1 сообщение ] 




Для Мосгорсуда, Роскомнадзора и рекламодателей:: rstracker[собака]yandex.ru
cron